DDT Muscle 4 Tokyo Performance 2021 03 09 DX-TV

DDT Muscle 4 Tokyo Performance 2021 03 09 DX-TV

DDT Muscle 4 Tokyo Performance

 DDT Muscle 4 Tokyo Performance

 

 

 

Download Links with premium High Speed


Dopapk

 

 

Show Links

 

http://shrt10.com/9vv2O

 

[collapse]

 

 

Nitroflare

 

 

Show Links

 

http://shrt10.com/dMkBKN1rE

 

[collapse]

 

 

Rapidgator

 

 

Show Links

 

http://shrt10.com/2tFWLzb

 

[collapse]

 

 

Uploaded

 

 

Show Links

 

http://shrt10.com/ekCUqA

 

[collapse]

 

 

Watch online

 

Server 1

 

 

 

 

watch now

 

 

 

 

Server-2

 

 

 

 

watch now

 

 

 

|Server-3

 

 

 

 

DDT Muscle 4 Tokyo Performance

 

 

Uploaded By Site DX-TV.com

 

 

Show Info This Show

 

 

Complete name : DDT.2021.03.09.Muscle.4.Tokyo.Performance.WEB.h264-LATE.mkv
Format : Matroska
Format version : Version 4
File size : 2.02 GiB
Duration : 2 h 43 min
Overall bit rate : 1 774 kb/s

DDT Muscle 4

Video
ID : 1
Format : AVC
Duration : 2 h 43 min
Bit rate : 1 676 kb/s
Width : 960 pixels
Height : 540 pixels
Display aspect ratio : 16:9
Frame rate mode : Constant
Frame rate : 30.000 FPS
Color space : YUV
Chroma subsampling : 4:2:0
Bit depth : 8 bits
Scan type : Progressive
Bits/(Pixel*Frame) : 0.108
Stream size : 1.91 GiB (94%)
Default : Yes
Forced : No
Color range : Limited
Color primaries : BT.601 PAL
Transfer characteristics : BT.601
Matrix coefficients : BT.470 System B/G

Audio
ID : 2
Format : AAC LC
Codec ID : A_AAC-2
Duration : 2 h 43 min
Bit rate : 96.0 kb/s
Channel(s) : 2 channels
Channel layout : L R
Sampling rate : 44.1 kHz
Frame rate : 43.066 FPS
Compression mode : Lossy
Stream size : 112 MiB (5%)
Language : English
Default : Yes
Forced : No

DDT Muscle 4

Audio
ID : 2
Format : AAC LC
Codec ID : A_AAC-2
Duration : 2 h 43 min
Bit rate : 96.0 kb/s
Channel(s) : 2 channels
Channel layout : L R
Sampling rate : 44.1 kHz
Frame rate : 43.066 FPS
Compression mode : Lossy
Stream size : 112 MiB (5%)
Language : English
Default : Yes
Forced : No

DDT Muscle 4

Audio
ID : 2
Format : AAC LC
Codec ID : A_AAC-2
Duration : 2 h 43 min
Bit rate : 96.0 kb/s
Channel(s) : 2 channels
Channel layout : L R
Sampling rate : 44.1 kHz
Frame rate : 43.066 FPS
Compression mode : Lossy
Stream size : 112 MiB (5%)
Language : English
Default : Yes
Forced : No

 

DDT Muscle 4

Audio
ID : 2
Format : AAC LC
Codec ID : A_AAC-2
Duration : 2 h 43 min
Bit rate : 96.0 kb/s
Channel(s) : 2 channels
Channel layout : L R
Sampling rate : 44.1 kHz
Frame rate : 43.066 FPS
Compression mode : Lossy
Stream size : 112 MiB (5%)
Language : English
Default : Yes
Forced : No

[collapse]

 

 

https://dx-tv.com/

Leave a Reply

Your email address will not be published. Required fields are marked *

This site uses Akismet to reduce spam. Learn how your comment data is processed.