DDT Max Bump 2021 05 04 Japanese DX-TV

DDT Max Bump 2021 05 04 Japanese DX-TV

DDT Max Bump 2021

 DDT Max Bump 2021

 

 

 

Download Links with High Speed


 

Dopapk

 

 

Show Links

 

http://shrt10.com/y5XjtGM

 

[collapse]

 

 

Nitroflare

 

 

Show Links

 

http://shrt10.com/F6aV4

 

[collapse]

 

 

Rapidgator

 

 

Show Links

 

http://shrt10.com/SeK6GdWX

 

[collapse]

 

 

Uploaded

 

 

Show Links

 

http://shrt10.com/lNq3Y3y

 

[collapse]

 

 

Watch online

 

Server 1

 

 

 

 

watch now

 

 

 

 

Server-2

 

 

 

 

watch now

 

 

 

|Server-3

 

 

 

 

DDT Max Bump 2021

 

 

Uploaded By Site DX-TV.com

 

 

Show Info This Show

 

 

Complete name : DDT.2021.05.04.Max.Bump.2021.JAPANESE.WEB.h264-LATE.mkv
Format : Matroska
Format version : Version 4
File size : 2.23 GiB
Duration : 2 h 49 min
Overall bit rate : 1 886 kb/s

DDT Max Bump 2021

Video
ID : 1
Format : AVC
Codec ID : V_MPEG4/ISO/AVC
Duration : 2 h 49 min
Bit rate : 1 787 kb/s
Width : 960 pixels
Height : 540 pixels
Display aspect ratio : 16:9
Frame rate mode : Constant
Frame rate : 30.000 FPS
Color space : YUV
Chroma subsampling : 4:2:0
Bit depth : 8 bits
Scan type : Progressive
Bits/(Pixel*Frame) : 0.115
Stream size : 2.11 GiB (95%)
Default : Yes
Forced : No
Color range : Limited
Color primaries : BT.601 PAL
Transfer characteristics : BT.601
Matrix coefficients : BT.470 System B/G

Audio
ID : 2
Format : AAC LC
Codec ID : A_AAC-2
Duration : 2 h 49 min
Bit rate : 96.0 kb/s
Channel(s) : 2 channels
Channel layout : L R
Sampling rate : 44.1 kHz
Frame rate : 43.066 FPS
Compression mode : Lossy
Stream size : 116 MiB (5%)
Language : English
Default : Yes
Forced : No

DDT Max Bump 

Audio
ID : 2
Format : AAC LC
Codec ID : A_AAC-2
Duration : 2 h 49 min
Bit rate : 96.0 kb/s
Channel(s) : 2 channels
Channel layout : L R
Sampling rate : 44.1 kHz
Frame rate : 43.066 FPS
Compression mode : Lossy
Stream size : 116 MiB (5%)
Language : English
Default : Yes
Forced : No

Audio
ID : 2
Format : AAC LC
Codec ID : A_AAC-2
Duration : 2 h 49 min
Bit rate : 96.0 kb/s
Channel(s) : 2 channels
Channel layout : L R
Sampling rate : 44.1 kHz
Frame rate : 43.066 FPS
Compression mode : Lossy
Stream size : 116 MiB (5%)
Language : English
Default : Yes
Forced : No

DDT Max Bump 

Audio
ID : 2
Format : AAC LC
Codec ID : A_AAC-2
Duration : 2 h 49 min
Bit rate : 96.0 kb/s
Channel(s) : 2 channels
Channel layout : L R
Sampling rate : 44.1 kHz
Frame rate : 43.066 FPS
Compression mode : Lossy
Stream size : 116 MiB (5%)
Language : English
Default : Yes
Forced : No

DDT Max Bump 

Audio
ID : 2
Format : AAC LC
Codec ID : A_AAC-2
Duration : 2 h 49 min
Bit rate : 96.0 kb/s
Channel(s) : 2 channels
Channel layout : L R
Sampling rate : 44.1 kHz
Frame rate : 43.066 FPS
Compression mode : Lossy
Stream size : 116 MiB (5%)
Language : English
Default : Yes
Forced : No

 

DDT Max Bump 

[collapse]

 

 

https://dx-tv.com/