DDT King of DDT Final 2021 07 04 Japan 1080p Free

DDT King of DDT Final 2021 07 04 JAPAN 720p /1080p Online Free Replay DX-TV

Contents show

DDT King of DDT Final 2021

 DDT King of DDT Final 2021

 

 

 

Download Links with High Speed


Dopapk

 

 

Show Links

 

http://shrt10.com/iMI3G3E
http://shrt10.com/Z53yA3g
http://shrt10.com/XR2ytC

 

[collapse]

 

 

Nitroflare

 

 

Show Links

 

http://shrt10.com/yxKnts
http://shrt10.com/Ljb1VS
http://shrt10.com/XO683a9

 

[collapse]

 

 

Rapidgator

 

 

Show Links

 

http://shrt10.com/oOPVLrnzz
http://shrt10.com/58Zon4
http://shrt10.com/HVFDB

 

[collapse]

 

 

Uploaded

 

 

Show Links

 

http://shrt10.com/fxwSX6
http://shrt10.com/T8Cr17Sh4

 

[collapse]

 

 

Watch online

 

Server 1

 

 

 

 

watch now

 

 

 

 

Server-2

 

 

 

 

DDT King of DDT Final 2021

 

 

 

|Server-4

 

 

 

 

watch now

 

 

Uploaded By Site DX-TV.com

 

 

Show Info This Show

DDT King of DDT Final 2021

 

Complete name : DDT.2021.07.04.King.of.DDT.2021.Final.JAPANESE.WEB.h264-LATE.mkv
Format : Matroska
Format version : Version 4
File size : 1.79 GiB
Duration : 2 h 48 min
Overall bit rate mode : Variable
Overall bit rate : 1 517 kb/s

DDT King of DDT Final 2021

Video
ID : 1
Format : AVC
Format/Info : Advanced Video
Duration : 2 h 48 min
Bit rate mode : Variable
Bit rate : 1 389 kb/s
Maximum bit rate : 4 000 kb/s
Width : 960 pixels
Height : 540 pixels
Display aspect ratio : 16:9
Frame rate mode : Constant
Frame rate : 29.970 (29970/1000) FPS
Color space : YUV
Chroma subsampling : 4:2:0
Bit depth : 8 bits
Scan type : Progressive
Bits/(Pixel*Frame) : 0.089
Stream size : 1.64 GiB (92%)
Default : Yes
Forced : No
Color range : Limited
Color primaries : BT.709
Transfer characteristics : BT.709
Matrix coefficients : BT.709

Audio
ID : 2
Format : AAC LC
Codec ID : A_AAC-2
Duration : 2 h 48 min
Bit rate : 125 kb/s
Channel(s) : 2 channels
Channel layout : L R
Sampling rate : 48.0 kHz
Frame rate : 46.875 FPS
Compression mode : Lossy
Delay relative to video : 6 ms
Stream size : 151 MiB (8%)
Default : Yes
Forced : No

DDT King of DDT Final 2021

Complete name : DDT.2021.07.04.King.of.DDT.2021.Final.JAPANESE.1080p.WEB.h264-LATE.mkv
Format : Matroska
Format version : Version 4
File size : 9.47 GiB
Duration : 2 h 48 min
Overall bit rate mode : Variable
Overall bit rate : 8 039 kb/s

Video
ID : 1
Format : AVC
Format/Info : Advanced Video
Duration : 2 h 48 min
Bit rate mode : Variable
Bit rate : 7 655 kb/s
Maximum bit rate : 18.0 Mb/s
Width : 1 920 pixels
Height : 1 080 pixels
Display aspect ratio : 16:9
Frame rate mode : Constant
Frame rate : 29.970 (29970/1000) FPS
Color space : YUV
Chroma subsampling : 4:2:0
Bit depth : 8 bits
Scan type : Progressive
Bits/(Pixel*Frame) : 0.123
Stream size : 9.02 GiB (95%)
Default : Yes
Forced : No
Color range : Limited
Color primaries : BT.709
Transfer characteristics : BT.709
Matrix coefficients : BT.709

DDT King of DDT Final 2021

Audio
ID : 2
Format : AAC LC
Format/Info : Advanced Audio
Codec ID : A_AAC-2
Duration : 2 h 48 min
Bit rate : 384 kb/s
Channel(s) : 2 channels
Channel layout : L R
Sampling rate : 48.0 kHz
Frame rate : 46.875 FPS
Compression mode : Lossy
Delay relative to video : 6 ms
Stream size : 460 MiB (5%)
Default : Yes
Forced : No

Complete name : DDT.2021.07.04.King.of.DDT.2021.Final.JAPANESE.720p.WEB.h264-LATE.mkv
Format : Matroska
Format version : Version 4
File size : 3.86 GiB
Duration : 2 h 48 min
Overall bit rate mode : Variable
Overall bit rate : 3 280 kb/s

DDT King of DDT Final 2021

Video
ID : 1
Format : AVC
Format/Info : Advanced Video
Codec ID : V_MPEG4/ISO/AVC
Duration : 2 h 48 min
Bit rate mode : Variable
Bit rate : 3 088 kb/s
Maximum bit rate : 8 000 kb/s
Width : 1 280 pixels
Height : 720 pixels
Display aspect ratio : 16:9
Frame rate mode : Constant
Frame rate : 29.970 (29970/1000) FPS
Color space : YUV
Chroma subsampling : 4:2:0
Bit depth : 8 bits
Scan type : Progressive
Bits/(Pixel*Frame) : 0.112
Stream size : 3.64 GiB (94%)
Default : Yes
Forced : No
Color range : Limited
Color primaries : BT.709
Transfer characteristics : BT.709
Matrix coefficients : BT.709

DDT King of DDT Final 2021

Audio
ID : 2
Format : AAC LC
Codec ID : A_AAC-2
Duration : 2 h 48 min
Bit rate : 192 kb/s
Channel(s) : 2 channels
Channel layout : L R
Sampling rate : 48.0 kHz
Frame rate : 46.875 FPS (1024 SPF)
Compression mode : Lossy
Delay relative to video : 6 ms
Stream size : 228 MiB (6%)
Default : Yes
Forced : No

DDT King of DDT Final 2021

Complete name : DDT.2021.07.04.King.of.DDT.2021.Final.JAPANESE.WEB.h264-LATE.mkv
Format : Matroska
Format version : Version 4
File size : 1.79 GiB
Duration : 2 h 48 min
Overall bit rate mode : Variable
Overall bit rate : 1 517 kb/s

DDT King of DDT Final 2021

Video
ID : 1
Format : AVC
Format/Info : Advanced Video
Duration : 2 h 48 min
Bit rate mode : Variable
Bit rate : 1 389 kb/s
Maximum bit rate : 4 000 kb/s
Width : 960 pixels
Height : 540 pixels
Display aspect ratio : 16:9
Frame rate mode : Constant
Frame rate : 29.970 (29970/1000) FPS
Color space : YUV
Chroma subsampling : 4:2:0
Bit depth : 8 bits
Scan type : Progressive
Bits/(Pixel*Frame) : 0.089
Stream size : 1.64 GiB (92%)
Default : Yes
Forced : No
Color range : Limited
Color primaries : BT.709
Transfer characteristics : BT.709
Matrix coefficients : BT.709

Audio
ID : 2
Format : AAC LC
Codec ID : A_AAC-2
Duration : 2 h 48 min
Bit rate : 125 kb/s
Channel(s) : 2 channels
Channel layout : L R
Sampling rate : 48.0 kHz
Frame rate : 46.875 FPS
Compression mode : Lossy
Delay relative to video : 6 ms
Stream size : 151 MiB (8%)
Default : Yes
Forced : No

DDT King of DDT Final 2021

Complete name : DDT.2021.07.04.King.of.DDT.2021.Final.JAPANESE.1080p.WEB.h264-LATE.mkv
Format : Matroska
Format version : Version 4
File size : 9.47 GiB
Duration : 2 h 48 min
Overall bit rate mode : Variable
Overall bit rate : 8 039 kb/s

Video
ID : 1
Format : AVC
Format/Info : Advanced Video
Duration : 2 h 48 min
Bit rate mode : Variable
Bit rate : 7 655 kb/s
Maximum bit rate : 18.0 Mb/s
Width : 1 920 pixels
Height : 1 080 pixels
Display aspect ratio : 16:9
Frame rate mode : Constant
Frame rate : 29.970 (29970/1000) FPS
Color space : YUV
Chroma subsampling : 4:2:0
Bit depth : 8 bits
Scan type : Progressive
Bits/(Pixel*Frame) : 0.123
Stream size : 9.02 GiB (95%)
Default : Yes
Forced : No
Color range : Limited
Color primaries : BT.709
Transfer characteristics : BT.709
Matrix coefficients : BT.709

DDT King of DDT Final 2021

Audio
ID : 2
Format : AAC LC
Format/Info : Advanced Audio
Codec ID : A_AAC-2
Duration : 2 h 48 min
Bit rate : 384 kb/s
Channel(s) : 2 channels
Channel layout : L R
Sampling rate : 48.0 kHz
Frame rate : 46.875 FPS
Compression mode : Lossy
Delay relative to video : 6 ms
Stream size : 460 MiB (5%)
Default : Yes
Forced : No

Complete name : DDT.2021.07.04.King.of.DDT.2021.Final.JAPANESE.720p.WEB.h264-LATE.mkv
Format : Matroska
Format version : Version 4
File size : 3.86 GiB
Duration : 2 h 48 min
Overall bit rate mode : Variable
Overall bit rate : 3 280 kb/s

DDT King of DDT Final 2021

Video
ID : 1
Format : AVC
Format/Info : Advanced Video
Codec ID : V_MPEG4/ISO/AVC
Duration : 2 h 48 min
Bit rate mode : Variable
Bit rate : 3 088 kb/s
Maximum bit rate : 8 000 kb/s
Width : 1 280 pixels
Height : 720 pixels
Display aspect ratio : 16:9
Frame rate mode : Constant
Frame rate : 29.970 (29970/1000) FPS
Color space : YUV
Chroma subsampling : 4:2:0
Bit depth : 8 bits
Scan type : Progressive
Bits/(Pixel*Frame) : 0.112
Stream size : 3.64 GiB (94%)
Default : Yes
Forced : No
Color range : Limited
Color primaries : BT.709
Transfer characteristics : BT.709
Matrix coefficients : BT.709

DDT King of DDT Final 2021

Audio
ID : 2
Format : AAC LC
Codec ID : A_AAC-2
Duration : 2 h 48 min
Bit rate : 192 kb/s
Channel(s) : 2 channels
Channel layout : L R
Sampling rate : 48.0 kHz
Frame rate : 46.875 FPS (1024 SPF)
Compression mode : Lossy
Delay relative to video : 6 ms
Stream size : 228 MiB (6%)
Default : Yes
Forced : No

DDT King of DDT Final 2021

Complete name : DDT.2021.07.04.King.of.DDT.2021.Final.JAPANESE.WEB.h264-LATE.mkv
Format : Matroska
Format version : Version 4
File size : 1.79 GiB
Duration : 2 h 48 min
Overall bit rate mode : Variable
Overall bit rate : 1 517 kb/s

DDT King of DDT Final 2021

Video
ID : 1
Format : AVC
Format/Info : Advanced Video
Duration : 2 h 48 min
Bit rate mode : Variable
Bit rate : 1 389 kb/s
Maximum bit rate : 4 000 kb/s
Width : 960 pixels
Height : 540 pixels
Display aspect ratio : 16:9
Frame rate mode : Constant
Frame rate : 29.970 (29970/1000) FPS
Color space : YUV
Chroma subsampling : 4:2:0
Bit depth : 8 bits
Scan type : Progressive
Bits/(Pixel*Frame) : 0.089
Stream size : 1.64 GiB (92%)
Default : Yes
Forced : No
Color range : Limited
Color primaries : BT.709
Transfer characteristics : BT.709
Matrix coefficients : BT.709

Audio
ID : 2
Format : AAC LC
Codec ID : A_AAC-2
Duration : 2 h 48 min
Bit rate : 125 kb/s
Channel(s) : 2 channels
Channel layout : L R
Sampling rate : 48.0 kHz
Frame rate : 46.875 FPS
Compression mode : Lossy
Delay relative to video : 6 ms
Stream size : 151 MiB (8%)
Default : Yes
Forced : No

DDT King of DDT Final 2021

Complete name : DDT.2021.07.04.King.of.DDT.2021.Final.JAPANESE.1080p.WEB.h264-LATE.mkv
Format : Matroska
Format version : Version 4
File size : 9.47 GiB
Duration : 2 h 48 min
Overall bit rate mode : Variable
Overall bit rate : 8 039 kb/s

Video
ID : 1
Format : AVC
Format/Info : Advanced Video
Duration : 2 h 48 min
Bit rate mode : Variable
Bit rate : 7 655 kb/s
Maximum bit rate : 18.0 Mb/s
Width : 1 920 pixels
Height : 1 080 pixels
Display aspect ratio : 16:9
Frame rate mode : Constant
Frame rate : 29.970 (29970/1000) FPS
Color space : YUV
Chroma subsampling : 4:2:0
Bit depth : 8 bits
Scan type : Progressive
Bits/(Pixel*Frame) : 0.123
Stream size : 9.02 GiB (95%)
Default : Yes
Forced : No
Color range : Limited
Color primaries : BT.709
Transfer characteristics : BT.709
Matrix coefficients : BT.709

DDT King of DDT Final 2021

Audio
ID : 2
Format : AAC LC
Format/Info : Advanced Audio
Codec ID : A_AAC-2
Duration : 2 h 48 min
Bit rate : 384 kb/s
Channel(s) : 2 channels
Channel layout : L R
Sampling rate : 48.0 kHz
Frame rate : 46.875 FPS
Compression mode : Lossy
Delay relative to video : 6 ms
Stream size : 460 MiB (5%)
Default : Yes
Forced : No

Complete name : DDT.2021.07.04.King.of.DDT.2021.Final.JAPANESE.720p.WEB.h264-LATE.mkv
Format : Matroska
Format version : Version 4
File size : 3.86 GiB
Duration : 2 h 48 min
Overall bit rate mode : Variable
Overall bit rate : 3 280 kb/s

DDT King of DDT Final 2021

Video
ID : 1
Format : AVC
Format/Info : Advanced Video
Codec ID : V_MPEG4/ISO/AVC
Duration : 2 h 48 min
Bit rate mode : Variable
Bit rate : 3 088 kb/s
Maximum bit rate : 8 000 kb/s
Width : 1 280 pixels
Height : 720 pixels
Display aspect ratio : 16:9
Frame rate mode : Constant
Frame rate : 29.970 (29970/1000) FPS
Color space : YUV
Chroma subsampling : 4:2:0
Bit depth : 8 bits
Scan type : Progressive
Bits/(Pixel*Frame) : 0.112
Stream size : 3.64 GiB (94%)
Default : Yes
Forced : No
Color range : Limited
Color primaries : BT.709
Transfer characteristics : BT.709
Matrix coefficients : BT.709

DDT King of DDT Final 2021

Audio
ID : 2
Format : AAC LC
Codec ID : A_AAC-2
Duration : 2 h 48 min
Bit rate : 192 kb/s
Channel(s) : 2 channels
Channel layout : L R
Sampling rate : 48.0 kHz
Frame rate : 46.875 FPS (1024 SPF)
Compression mode : Lossy
Delay relative to video : 6 ms
Stream size : 228 MiB (6%)
Default : Yes
Forced : No

DDT King of DDT Final 2021

Complete name : DDT.2021.07.04.King.of.DDT.2021.Final.JAPANESE.WEB.h264-LATE.mkv
Format : Matroska
Format version : Version 4
File size : 1.79 GiB
Duration : 2 h 48 min
Overall bit rate mode : Variable
Overall bit rate : 1 517 kb/s

DDT King of DDT Final 2021

Video
ID : 1
Format : AVC
Format/Info : Advanced Video
Duration : 2 h 48 min
Bit rate mode : Variable
Bit rate : 1 389 kb/s
Maximum bit rate : 4 000 kb/s
Width : 960 pixels
Height : 540 pixels
Display aspect ratio : 16:9
Frame rate mode : Constant
Frame rate : 29.970 (29970/1000) FPS
Color space : YUV
Chroma subsampling : 4:2:0
Bit depth : 8 bits
Scan type : Progressive
Bits/(Pixel*Frame) : 0.089
Stream size : 1.64 GiB (92%)
Default : Yes
Forced : No
Color range : Limited
Color primaries : BT.709
Transfer characteristics : BT.709
Matrix coefficients : BT.709

Audio
ID : 2
Format : AAC LC
Codec ID : A_AAC-2
Duration : 2 h 48 min
Bit rate : 125 kb/s
Channel(s) : 2 channels
Channel layout : L R
Sampling rate : 48.0 kHz
Frame rate : 46.875 FPS
Compression mode : Lossy
Delay relative to video : 6 ms
Stream size : 151 MiB (8%)
Default : Yes
Forced : No

DDT King of DDT Final 2021

Complete name : DDT.2021.07.04.King.of.DDT.2021.Final.JAPANESE.1080p.WEB.h264-LATE.mkv
Format : Matroska
Format version : Version 4
File size : 9.47 GiB
Duration : 2 h 48 min
Overall bit rate mode : Variable
Overall bit rate : 8 039 kb/s

Video
ID : 1
Format : AVC
Format/Info : Advanced Video
Duration : 2 h 48 min
Bit rate mode : Variable
Bit rate : 7 655 kb/s
Maximum bit rate : 18.0 Mb/s
Width : 1 920 pixels
Height : 1 080 pixels
Display aspect ratio : 16:9
Frame rate mode : Constant
Frame rate : 29.970 (29970/1000) FPS
Color space : YUV
Chroma subsampling : 4:2:0
Bit depth : 8 bits
Scan type : Progressive
Bits/(Pixel*Frame) : 0.123
Stream size : 9.02 GiB (95%)
Default : Yes
Forced : No
Color range : Limited
Color primaries : BT.709
Transfer characteristics : BT.709
Matrix coefficients : BT.709

DDT King of DDT Final 2021

Audio
ID : 2
Format : AAC LC
Format/Info : Advanced Audio
Codec ID : A_AAC-2
Duration : 2 h 48 min
Bit rate : 384 kb/s
Channel(s) : 2 channels
Channel layout : L R
Sampling rate : 48.0 kHz
Frame rate : 46.875 FPS
Compression mode : Lossy
Delay relative to video : 6 ms
Stream size : 460 MiB (5%)
Default : Yes
Forced : No

Complete name : DDT.2021.07.04.King.of.DDT.2021.Final.JAPANESE.720p.WEB.h264-LATE.mkv
Format : Matroska
Format version : Version 4
File size : 3.86 GiB
Duration : 2 h 48 min
Overall bit rate mode : Variable
Overall bit rate : 3 280 kb/s

DDT King of DDT Final 2021

Video
ID : 1
Format : AVC
Format/Info : Advanced Video
Codec ID : V_MPEG4/ISO/AVC
Duration : 2 h 48 min
Bit rate mode : Variable
Bit rate : 3 088 kb/s
Maximum bit rate : 8 000 kb/s
Width : 1 280 pixels
Height : 720 pixels
Display aspect ratio : 16:9
Frame rate mode : Constant
Frame rate : 29.970 (29970/1000) FPS
Color space : YUV
Chroma subsampling : 4:2:0
Bit depth : 8 bits
Scan type : Progressive
Bits/(Pixel*Frame) : 0.112
Stream size : 3.64 GiB (94%)
Default : Yes
Forced : No
Color range : Limited
Color primaries : BT.709
Transfer characteristics : BT.709
Matrix coefficients : BT.709

DDT King of DDT Final 2021

Audio
ID : 2
Format : AAC LC
Codec ID : A_AAC-2
Duration : 2 h 48 min
Bit rate : 192 kb/s
Channel(s) : 2 channels
Channel layout : L R
Sampling rate : 48.0 kHz
Frame rate : 46.875 FPS (1024 SPF)
Compression mode : Lossy
Delay relative to video : 6 ms
Stream size : 228 MiB (6%)
Default : Yes
Forced : No

DDT King of DDT Final 2021

Complete name : DDT.2021.07.04.King.of.DDT.2021.Final.JAPANESE.WEB.h264-LATE.mkv
Format : Matroska
Format version : Version 4
File size : 1.79 GiB
Duration : 2 h 48 min
Overall bit rate mode : Variable
Overall bit rate : 1 517 kb/s

DDT King of DDT Final 2021

Video
ID : 1
Format : AVC
Format/Info : Advanced Video
Duration : 2 h 48 min
Bit rate mode : Variable
Bit rate : 1 389 kb/s
Maximum bit rate : 4 000 kb/s
Width : 960 pixels
Height : 540 pixels
Display aspect ratio : 16:9
Frame rate mode : Constant
Frame rate : 29.970 (29970/1000) FPS
Color space : YUV
Chroma subsampling : 4:2:0
Bit depth : 8 bits
Scan type : Progressive
Bits/(Pixel*Frame) : 0.089
Stream size : 1.64 GiB (92%)
Default : Yes
Forced : No
Color range : Limited
Color primaries : BT.709
Transfer characteristics : BT.709
Matrix coefficients : BT.709

Audio
ID : 2
Format : AAC LC
Codec ID : A_AAC-2
Duration : 2 h 48 min
Bit rate : 125 kb/s
Channel(s) : 2 channels
Channel layout : L R
Sampling rate : 48.0 kHz
Frame rate : 46.875 FPS
Compression mode : Lossy
Delay relative to video : 6 ms
Stream size : 151 MiB (8%)
Default : Yes
Forced : No

DDT King of DDT Final 2021

Complete name : DDT.2021.07.04.King.of.DDT.2021.Final.JAPANESE.1080p.WEB.h264-LATE.mkv
Format : Matroska
Format version : Version 4
File size : 9.47 GiB
Duration : 2 h 48 min
Overall bit rate mode : Variable
Overall bit rate : 8 039 kb/s

Video
ID : 1
Format : AVC
Format/Info : Advanced Video
Duration : 2 h 48 min
Bit rate mode : Variable
Bit rate : 7 655 kb/s
Maximum bit rate : 18.0 Mb/s
Width : 1 920 pixels
Height : 1 080 pixels
Display aspect ratio : 16:9
Frame rate mode : Constant
Frame rate : 29.970 (29970/1000) FPS
Color space : YUV
Chroma subsampling : 4:2:0
Bit depth : 8 bits
Scan type : Progressive
Bits/(Pixel*Frame) : 0.123
Stream size : 9.02 GiB (95%)
Default : Yes
Forced : No
Color range : Limited
Color primaries : BT.709
Transfer characteristics : BT.709
Matrix coefficients : BT.709

DDT King of DDT Final 2021

Audio
ID : 2
Format : AAC LC
Format/Info : Advanced Audio
Codec ID : A_AAC-2
Duration : 2 h 48 min
Bit rate : 384 kb/s
Channel(s) : 2 channels
Channel layout : L R
Sampling rate : 48.0 kHz
Frame rate : 46.875 FPS
Compression mode : Lossy
Delay relative to video : 6 ms
Stream size : 460 MiB (5%)
Default : Yes
Forced : No

Complete name : DDT.2021.07.04.King.of.DDT.2021.Final.JAPANESE.720p.WEB.h264-LATE.mkv
Format : Matroska
Format version : Version 4
File size : 3.86 GiB
Duration : 2 h 48 min
Overall bit rate mode : Variable
Overall bit rate : 3 280 kb/s

DDT King of DDT Final 2021

Video
ID : 1
Format : AVC
Format/Info : Advanced Video
Codec ID : V_MPEG4/ISO/AVC
Duration : 2 h 48 min
Bit rate mode : Variable
Bit rate : 3 088 kb/s
Maximum bit rate : 8 000 kb/s
Width : 1 280 pixels
Height : 720 pixels
Display aspect ratio : 16:9
Frame rate mode : Constant
Frame rate : 29.970 (29970/1000) FPS
Color space : YUV
Chroma subsampling : 4:2:0
Bit depth : 8 bits
Scan type : Progressive
Bits/(Pixel*Frame) : 0.112
Stream size : 3.64 GiB (94%)
Default : Yes
Forced : No
Color range : Limited
Color primaries : BT.709
Transfer characteristics : BT.709
Matrix coefficients : BT.709

DDT King of DDT Final 2021

Audio
ID : 2
Format : AAC LC
Codec ID : A_AAC-2
Duration : 2 h 48 min
Bit rate : 192 kb/s
Channel(s) : 2 channels
Channel layout : L R
Sampling rate : 48.0 kHz
Frame rate : 46.875 FPS (1024 SPF)
Compression mode : Lossy
Delay relative to video : 6 ms
Stream size : 228 MiB (6%)
Default : Yes
Forced : No

DDT King of DDT Final 2021

Complete name : DDT.2021.07.04.King.of.DDT.2021.Final.JAPANESE.WEB.h264-LATE.mkv
Format : Matroska
Format version : Version 4
File size : 1.79 GiB
Duration : 2 h 48 min
Overall bit rate mode : Variable
Overall bit rate : 1 517 kb/s

DDT King of DDT Final 2021

Video
ID : 1
Format : AVC
Format/Info : Advanced Video
Duration : 2 h 48 min
Bit rate mode : Variable
Bit rate : 1 389 kb/s
Maximum bit rate : 4 000 kb/s
Width : 960 pixels
Height : 540 pixels
Display aspect ratio : 16:9
Frame rate mode : Constant
Frame rate : 29.970 (29970/1000) FPS
Color space : YUV
Chroma subsampling : 4:2:0
Bit depth : 8 bits
Scan type : Progressive
Bits/(Pixel*Frame) : 0.089
Stream size : 1.64 GiB (92%)
Default : Yes
Forced : No
Color range : Limited
Color primaries : BT.709
Transfer characteristics : BT.709
Matrix coefficients : BT.709

Audio
ID : 2
Format : AAC LC
Codec ID : A_AAC-2
Duration : 2 h 48 min
Bit rate : 125 kb/s
Channel(s) : 2 channels
Channel layout : L R
Sampling rate : 48.0 kHz
Frame rate : 46.875 FPS
Compression mode : Lossy
Delay relative to video : 6 ms
Stream size : 151 MiB (8%)
Default : Yes
Forced : No

DDT King of DDT Final 2021

Complete name : DDT.2021.07.04.King.of.DDT.2021.Final.JAPANESE.1080p.WEB.h264-LATE.mkv
Format : Matroska
Format version : Version 4
File size : 9.47 GiB
Duration : 2 h 48 min
Overall bit rate mode : Variable
Overall bit rate : 8 039 kb/s

Video
ID : 1
Format : AVC
Format/Info : Advanced Video
Duration : 2 h 48 min
Bit rate mode : Variable
Bit rate : 7 655 kb/s
Maximum bit rate : 18.0 Mb/s
Width : 1 920 pixels
Height : 1 080 pixels
Display aspect ratio : 16:9
Frame rate mode : Constant
Frame rate : 29.970 (29970/1000) FPS
Color space : YUV
Chroma subsampling : 4:2:0
Bit depth : 8 bits
Scan type : Progressive
Bits/(Pixel*Frame) : 0.123
Stream size : 9.02 GiB (95%)
Default : Yes
Forced : No
Color range : Limited
Color primaries : BT.709
Transfer characteristics : BT.709
Matrix coefficients : BT.709

DDT King of DDT Final 2021

Audio
ID : 2
Format : AAC LC
Format/Info : Advanced Audio
Codec ID : A_AAC-2
Duration : 2 h 48 min
Bit rate : 384 kb/s
Channel(s) : 2 channels
Channel layout : L R
Sampling rate : 48.0 kHz
Frame rate : 46.875 FPS
Compression mode : Lossy
Delay relative to video : 6 ms
Stream size : 460 MiB (5%)
Default : Yes
Forced : No

Complete name : DDT.2021.07.04.King.of.DDT.2021.Final.JAPANESE.720p.WEB.h264-LATE.mkv
Format : Matroska
Format version : Version 4
File size : 3.86 GiB
Duration : 2 h 48 min
Overall bit rate mode : Variable
Overall bit rate : 3 280 kb/s

DDT King of DDT Final 2021

Video
ID : 1
Format : AVC
Format/Info : Advanced Video
Codec ID : V_MPEG4/ISO/AVC
Duration : 2 h 48 min
Bit rate mode : Variable
Bit rate : 3 088 kb/s
Maximum bit rate : 8 000 kb/s
Width : 1 280 pixels
Height : 720 pixels
Display aspect ratio : 16:9
Frame rate mode : Constant
Frame rate : 29.970 (29970/1000) FPS
Color space : YUV
Chroma subsampling : 4:2:0
Bit depth : 8 bits
Scan type : Progressive
Bits/(Pixel*Frame) : 0.112
Stream size : 3.64 GiB (94%)
Default : Yes
Forced : No
Color range : Limited
Color primaries : BT.709
Transfer characteristics : BT.709
Matrix coefficients : BT.709

DDT King of DDT Final 2021

Audio
ID : 2
Format : AAC LC
Codec ID : A_AAC-2
Duration : 2 h 48 min
Bit rate : 192 kb/s
Channel(s) : 2 channels
Channel layout : L R
Sampling rate : 48.0 kHz
Frame rate : 46.875 FPS (1024 SPF)
Compression mode : Lossy
Delay relative to video : 6 ms
Stream size : 228 MiB (6%)
Default : Yes
Forced : No

DDT King of DDT Final 2021

Complete name : DDT.2021.07.04.King.of.DDT.2021.Final.JAPANESE.WEB.h264-LATE.mkv
Format : Matroska
Format version : Version 4
File size : 1.79 GiB
Duration : 2 h 48 min
Overall bit rate mode : Variable
Overall bit rate : 1 517 kb/s

DDT King of DDT Final 2021

Video
ID : 1
Format : AVC
Format/Info : Advanced Video
Duration : 2 h 48 min
Bit rate mode : Variable
Bit rate : 1 389 kb/s
Maximum bit rate : 4 000 kb/s
Width : 960 pixels
Height : 540 pixels
Display aspect ratio : 16:9
Frame rate mode : Constant
Frame rate : 29.970 (29970/1000) FPS
Color space : YUV
Chroma subsampling : 4:2:0
Bit depth : 8 bits
Scan type : Progressive
Bits/(Pixel*Frame) : 0.089
Stream size : 1.64 GiB (92%)
Default : Yes
Forced : No
Color range : Limited
Color primaries : BT.709
Transfer characteristics : BT.709
Matrix coefficients : BT.709

Audio
ID : 2
Format : AAC LC
Codec ID : A_AAC-2
Duration : 2 h 48 min
Bit rate : 125 kb/s
Channel(s) : 2 channels
Channel layout : L R
Sampling rate : 48.0 kHz
Frame rate : 46.875 FPS
Compression mode : Lossy
Delay relative to video : 6 ms
Stream size : 151 MiB (8%)
Default : Yes
Forced : No

DDT King of DDT Final 2021

Complete name : DDT.2021.07.04.King.of.DDT.2021.Final.JAPANESE.1080p.WEB.h264-LATE.mkv
Format : Matroska
Format version : Version 4
File size : 9.47 GiB
Duration : 2 h 48 min
Overall bit rate mode : Variable
Overall bit rate : 8 039 kb/s

Video
ID : 1
Format : AVC
Format/Info : Advanced Video
Duration : 2 h 48 min
Bit rate mode : Variable
Bit rate : 7 655 kb/s
Maximum bit rate : 18.0 Mb/s
Width : 1 920 pixels
Height : 1 080 pixels
Display aspect ratio : 16:9
Frame rate mode : Constant
Frame rate : 29.970 (29970/1000) FPS
Color space : YUV
Chroma subsampling : 4:2:0
Bit depth : 8 bits
Scan type : Progressive
Bits/(Pixel*Frame) : 0.123
Stream size : 9.02 GiB (95%)
Default : Yes
Forced : No
Color range : Limited
Color primaries : BT.709
Transfer characteristics : BT.709
Matrix coefficients : BT.709

DDT King of DDT Final 2021

Audio
ID : 2
Format : AAC LC
Format/Info : Advanced Audio
Codec ID : A_AAC-2
Duration : 2 h 48 min
Bit rate : 384 kb/s
Channel(s) : 2 channels
Channel layout : L R
Sampling rate : 48.0 kHz
Frame rate : 46.875 FPS
Compression mode : Lossy
Delay relative to video : 6 ms
Stream size : 460 MiB (5%)
Default : Yes
Forced : No

Complete name : DDT.2021.07.04.King.of.DDT.2021.Final.JAPANESE.720p.WEB.h264-LATE.mkv
Format : Matroska
Format version : Version 4
File size : 3.86 GiB
Duration : 2 h 48 min
Overall bit rate mode : Variable
Overall bit rate : 3 280 kb/s

DDT King of DDT Final 2021

Video
ID : 1
Format : AVC
Format/Info : Advanced Video
Codec ID : V_MPEG4/ISO/AVC
Duration : 2 h 48 min
Bit rate mode : Variable
Bit rate : 3 088 kb/s
Maximum bit rate : 8 000 kb/s
Width : 1 280 pixels
Height : 720 pixels
Display aspect ratio : 16:9
Frame rate mode : Constant
Frame rate : 29.970 (29970/1000) FPS
Color space : YUV
Chroma subsampling : 4:2:0
Bit depth : 8 bits
Scan type : Progressive
Bits/(Pixel*Frame) : 0.112
Stream size : 3.64 GiB (94%)
Default : Yes
Forced : No
Color range : Limited
Color primaries : BT.709
Transfer characteristics : BT.709
Matrix coefficients : BT.709

DDT King of DDT Final 2021

Audio
ID : 2
Format : AAC LC
Codec ID : A_AAC-2
Duration : 2 h 48 min
Bit rate : 192 kb/s
Channel(s) : 2 channels
Channel layout : L R
Sampling rate : 48.0 kHz
Frame rate : 46.875 FPS (1024 SPF)
Compression mode : Lossy
Delay relative to video : 6 ms
Stream size : 228 MiB (6%)
Default : Yes
Forced : No

DDT King of DDT Final 2021

 

[collapse]

 

 

https://dx-tv.com/

Leave a Reply

Your email address will not be published. Required fields are marked *

This site uses Akismet to reduce spam. Learn how your comment data is processed.