DDT Judgement DDT 24th Anniversary 2021 03 28 Japan

DDT Judgement DDT 24th Anniversary 2021 03 28 Japan DX-TV

DDT Judgement DDT 24th Anniversary

 DDT Judgement DDT 24th Anniversary

 

 

 

Download Links with premium High Speed


Dopapk

 

 

Show Links

 

http://shrt10.com/sMWVAIL1

 

[collapse]

 

 

Nitroflare

 

 

Show Links

 

http://shrt10.com/pbgyS1

 

[collapse]

 

 

Rapidgator

 

 

Show Links

 

http://shrt10.com/UFOFUHD6

 

[collapse]

 

 

Uploaded

 

 

Show Links

 

 

 

 

[collapse]

 

 

Watch online

 

Server 1

 

 

 

 

Judgement DDT 24th Anniversary

 

 

 

 

Server-2

 

 

 

 

watch now

 

 

 

|Server-3

 

 

 

 

watch now

 

 

Uploaded By Site DX-TV.com

 

 

Show Info This Show

 

 

Complete name : DDT.2021.03.28.Judgement.2021.DDT.24th.Anniversary.JAPANESE.WEB.h264-LATE.mkv
Format : Matroska
Format version : Version 4
File size : 2.16 GiB
Duration : 2 h 46 min
Overall bit rate : 1 865 kb/s

Judgement DDT 24th Anniversary

Video
ID : 1
Format : AVC
Duration : 2 h 46 min
Bit rate : 1 767 kb/s
Width : 960 pixels
Height : 540 pixels
Display aspect ratio : 16:9
Frame rate mode : Constant
Frame rate : 30.000 FPS
Color space : YUV
Chroma subsampling : 4:2:0
Bit depth : 8 bits
Scan type : Progressive
Bits/(Pixel*Frame) : 0.114
Stream size : 2.05 GiB (95%)
Default : Yes
Forced : No
Color range : Limited
Color primaries : BT.601 PAL
Transfer characteristics : BT.601
Matrix coefficients : BT.470 System B/G

Judgement DDT 24th Anniversary

Audio
ID : 2
Format : AAC LC
Format/Info : Advanced Audio
Codec ID : A_AAC-2
Duration : 2 h 46 min
Bit rate : 96.0 kb/s
Channel(s) : 2 channels
Channel layout : L R
Sampling rate : 44.1 kHz
Frame rate : 43.066 FPS (1024 SPF)
Compression mode : Lossy
Stream size : 114 MiB (5%)
Language : English
Default : Yes
Forced : No

Audio
ID : 2
Format : AAC LC
Format/Info : Advanced Audio
Codec ID : A_AAC-2
Duration : 2 h 46 min
Bit rate : 96.0 kb/s
Channel(s) : 2 channels
Channel layout : L R
Sampling rate : 44.1 kHz
Frame rate : 43.066 FPS (1024 SPF)
Compression mode : Lossy
Stream size : 114 MiB (5%)
Language : English
Default : Yes
Forced : No

Judgement DDT 24th Anniversary

Audio
ID : 2
Format : AAC LC
Format/Info : Advanced Audio
Codec ID : A_AAC-2
Duration : 2 h 46 min
Bit rate : 96.0 kb/s
Channel(s) : 2 channels
Channel layout : L R
Sampling rate : 44.1 kHz
Frame rate : 43.066 FPS (1024 SPF)
Compression mode : Lossy
Stream size : 114 MiB (5%)
Language : English
Default : Yes
Forced : No

Judgement DDT 24th Anniversary

 

[collapse]

 

 

https://dx-tv.com/

You May Also Like