DDT Free Online 13 June 2020 V Show 6

Watch DDT Free Online 13 June 2020 V Show 6 LATE DX-TV

 

DDT

DDT Free Online
 

DDT Free Online 13 June 2020 V Show 6

 

 

 

Complete name : DDT.2020.06.13.DDT.TV.Show.6.JAPANESE.WEB.h264-LATE  .mkv
Format : Matroska
Format version : Version 4
File size : 2.21 GiB
Duration : 2 h 45 min
Overall bit rate : 1 917 kb/s

 Free Online 13 June 2020 V Show 6

Video
ID : 1
Format : AVC
Format/Info : DDT
wprofile : [email protected]
settings, : 4 frames
Codec ID : DDT
Duration : 2 h 44 min
Bit rate : 1 818 kb/s
Width : 960 pixels
Height : 540 pixels
Display aspect ratio : 16:9
Frame rate mode : Constant
Frame rate : 30.000 FPS
Color space : YUV
Chroma subsampling : 4:2:0
Bit depth : 8 bits
Scan type : DDT
Bits/(Pixel*Frame) : 0.117
Stream size : 2.10 GiB (95%)
Default : Yes
Forced : No
Color range : Limited
Color primaries : BT.601 PAL
Transfer characteristics : DDT
Matrix coefficients : BT.470

DDT Free Online 13 June 2020 V Show 6

Audio
ID : 2
Format : AAC LC
Format/Info : DDT
Codec ID : A_AAC-2
Duration : 2 h 44 min
Bit rate : 96.0 kb/s
Channel(s) : 2 channels
Channel layout : L R
Sampling rate : 44.1 kHz
Frame rate : 43.066 FPS (1024 SPF)
Compression mode : Lossy
Delay relative to video : -166 ms
Stream size : 113 MiB (5%)
Language : English
Default : DDT
Forced : No

DDT Free Online 13 June 2020 V Show 6

 

 

Watch online

 

 

Server 1

 

 

 

 

watch now

 

 

 

 

Server 2

 

 

 

watch now

 

 

 

Server-3

 

 

 

DDT Free Online

 

 

 

Uploaded By Site DX-TV.com

 

 

 

Download with premium account Links 

 

 

Keep2Share

 

 

nitroflare.com

 

 

rapidgator.net

 

 

uploadgig.com

 

 

 

dx-tv.com

 

urlfree.net

Leave a Reply

Your email address will not be published. Required fields are marked *

This site uses Akismet to reduce spam. Learn how your comment data is processed.