DDT Day Dream Believer 2021 03 14 JAP

DDT Day Dream Believer 2021 03 14 JAP DX-TV

DDT Day Dream Believer 2021

 DDT Day Dream Believer 2021

 

 

 

Download Links with premium High Speed


 

Dopapk

 

 

Show Links

 

http://shrt10.com/4c5Icj

 

[collapse]

 

 

Nitroflare

 

 

Show Links

 

http://shrt10.com/Si7sO6Twj

 

[collapse]

 

 

Rapidgator

 

 

Show Links

 

http://shrt10.com/3UpGB

 

[collapse]

 

 

Uploaded

 

 

Show Links

 

http://shrt10.com/bP1ReqI0h

 

[collapse]

 

 

Watch online

 

Server 1

 

 

 

 

watch now

 

 

 

 

Server-2

 

 

 

 

DDT Day Dream Believer

 

 

 

|Server-3

 

 

 

 

watch now

 

 

Uploaded By Site DX-TV.com

 

 

Show Info This Show

 

 

Complete name : DDT.2021.03.14.Day.Dream.Believer.2021.JAPANESE.WEB.h264-LATE.mkv
Format : Matroska
Format version : Version 4
File size : 2.06 GiB
Duration : 2 h 39 min
Overall bit rate : 1 854 kb/s

DDT Day Dream Believer

Video
ID : 1
Format : AVC
Duration : 2 h 39 min
Bit rate : 1 755 kb/s
Width : 960 pixels
Height : 540 pixels
Display aspect ratio : 16:9
Frame rate mode : Constant
Frame rate : 30.000 FPS
Color space : YUV
Chroma subsampling : 4:2:0
Bit depth : 8 bits
Scan type : Progressive
Bits/(Pixel*Frame) : 0.113
Stream size : 1.95 GiB (95%)
Default : Yes
Forced : No
Color range : Limited
Color primaries : BT.601 PAL
Transfer characteristics : BT.601
Matrix coefficients : BT.470

DDT Day Dream Believer

Audio
ID : 2
Format : AAC LC
Codec ID : A_AAC-2
Duration : 2 h 39 min
Bit rate : 96.0 kb/s
Channel(s) : 2 channels
Channel layout : L R
Sampling rate : 44.1 kHz
Frame rate : 43.066 FPS
Stream size : 109 MiB
Language : English
Default : Yes
Forced : No

Audio
ID : 2
Format : AAC LC
Codec ID : A_AAC-2
Duration : 2 h 39 min
Bit rate : 96.0 kb/s
Channel(s) : 2 channels
Channel layout : L R
Sampling rate : 44.1 kHz
Frame rate : 43.066 FPS
Stream size : 109 MiB
Language : English
Default : Yes
Forced : No

DDT Day Dream Believer

Audio
ID : 2
Format : AAC LC
Codec ID : A_AAC-2
Duration : 2 h 39 min
Bit rate : 96.0 kb/s
Channel(s) : 2 channels
Channel layout : L R
Sampling rate : 44.1 kHz
Frame rate : 43.066 FPS
Stream size : 109 MiB
Language : English
Default : Yes
Forced : No

 

 

[collapse]

 

 

https://dx-tv.com/

Leave a Reply

Your email address will not be published. Required fields are marked *

This site uses Akismet to reduce spam. Learn how your comment data is processed.