DDT DAMNATION 2021 Vol 4 Online Free

DDT DAMNATION 2021 Illegal Assembly Returns Vol 4 2021 07 26 Online Free Replay DX-TV

DDT DAMNATION 2021

 DDT DAMNATION 2021

 

 

 

Download Links with premium High Speed


Dopapk

 

 

Show Links

 

http://shrt10.com/OQX9JMw
http://shrt10.com/sm2Ae
http://shrt10.com/t4e57

 

[collapse]

 

 

Nitroflare

 

 

Show Links

 

http://shrt10.com/kE4z57z
http://shrt10.com/nNXFk
http://shrt10.com/NTVYVE

 

[collapse]

 

 

Rapidgator

 

 

Show Links

 

http://shrt10.com/KNmOL5KVi
http://shrt10.com/3Mr9f
http://shrt10.com/muHOgKe

 

[collapse]

 

 

Uploaded

 

 

Show Links

 

http://shrt10.com/eZOtQE7vF
http://shrt10.com/YbQRrr

 

[collapse]

 

 

Watch online

 

Server 1

 

 

 

 

DDT DAMNATION 2021

 

 

 

 

Server-2

 

 

 

 

watch now

 

 

 

|Server-3

 

 

 

 

watch now

 

 

Uploaded By Site DX-TV.com

 

 

Show Info This Show

 

DDT DAMNATION 2021

Complete name : DDT.2021.07.26.DAMNATION.Illegal.Assembly.Returns.Vol.4.JAPANESE.720p.WEB.h264-LATE.mkv
Format : Matroska
Format version : Version 4
File size : 2.71 GiB
Duration : 2 h 16 min
Overall bit rate mode : Variable
Overall bit rate : 2 848 kb/s

Video
ID : 1
Format : AVC
Duration : 2 h 16 min
Bit rate mode : Variable
Bit rate : 2 656 kb/s
Maximum bit rate : 8 000 kb/s
Width : 1 280 pixels
Height : 720 pixels
Display aspect ratio : 16:9
Frame rate mode : Constant
Frame rate : 29.970 (30000/1001) FPS
Color space : YUV
Chroma subsampling : 4:2:0
Bit depth : 8 bits
Scan type : Progressive
Bits/(Pixel*Frame) : 0.096
Stream size : 2.53 GiB (93%)
Default : Yes
Forced : No
Color range : Limited
Color primaries : BT.709
Transfer characteristics : BT.709
Matrix coefficients : BT.709

DDT DAMNATION 2021

Audio
ID : 2
Format : AAC LC
Format/Info : Advanced
Codec ID : A_AAC-2
Duration : 2 h 16 min
Bit rate : 192 kb/s
Channel(s) : 2 channels
Channel layout : L R
Sampling rate : 48.0 kHz
Frame rate : 46.875 FPS (1024 SPF)
Compression mode : Lossy
Delay relative to video : 15 ms
Stream size : 185 MiB (7%)
Default : Yes
Forced : No

Complete name : DDT.2021.07.26.DAMNATION.Illegal.Assembly.Returns.Vol.4.JAPANESE.1080p.WEB.h264-LATE.mkv
Format : Matroska
Format version : Version 4
File size : 6.44 GiB
Duration : 2 h 16 min
Overall bit rate mode : Variable
Overall bit rate : 6 760 kb/s

DDT DAMNATION 2021

Video
ID : 1
Format : AVC
Format/Info : Advanced Video
Duration : 2 h 16 min
Bit rate mode : Variable
Bit rate : 6 377 kb/s
Maximum bit rate : 18.0 Mb/s
Width : 1 920 pixels
Height : 1 080 pixels
Display aspect ratio : 16:9
Frame rate mode : Constant
Frame rate : 29.970 (30000/1001) FPS
Color space : YUV
Chroma subsampling : 4:2:0
Bit depth : 8 bits
Scan type : Progressive
Bits/(Pixel*Frame) : 0.103
Stream size : 6.07 GiB (94%)
Default : Yes
Forced : No
Color range : Limited
Color primaries : BT.709
Transfer characteristics : BT.709
Matrix coefficients : BT.709

DDT DAMNATION 2021

Audio
ID : 2
Format : AAC LC
Format/Info : Advanced Audio
Codec ID : A_AAC-2
Duration : 2 h 16 min
Bit rate : 384 kb/s
Channel(s) : 2 channels
Channel layout : L R
Sampling rate : 48.0 kHz
Frame rate : 46.875 FPS (1024 SPF)
Compression mode : Lossy
Delay relative to video : 15 ms
Stream size : 372 MiB (6%)
Default : Yes
Forced : No

Complete name : DDT.2021.07.26.DAMNATION.Illegal.Assembly.Returns.Vol.4.JAPANESE.WEB.h264-LATE.mkv
Format : Matroska
Format version : Version 4
File size : 1.24 GiB
Duration : 2 h 16 min
Overall bit rate mode : Variable
Overall bit rate : 1 305 kb/s

Video
ID : 1
Format : AVC
Format/Info : Advanced Video
Duration : 2 h 16 min
Bit rate mode : Variable
Bit rate : 1 177 kb/s
Maximum bit rate : 4 000 kb/s
Width : 960 pixels
Height : 540 pixels
Display aspect ratio : 16:9
Frame rate mode : Constant
Frame rate : 29.970 (30000/1001) FPS
Color space : YUV
Chroma subsampling : 4:2:0
Bit depth : 8 bits
Scan type : Progressive
Bits/(Pixel*Frame) : 0.076
Stream size : 1.12 GiB (90%)
Default : Yes
Forced : No
Color range : Limited
Color primaries : BT.709
Transfer characteristics : BT.709
Matrix coefficients : BT.709

DDT DAMNATION 2021

Audio
ID : 2
Format : AAC LC
Format/Info : Advanced Audio
Codec ID : A_AAC-2
Duration : 2 h 16 min
Bit rate : 125 kb/s
Channel(s) : 2 channels
Channel layout : L R
Sampling rate : 48.0 kHz
Frame rate : 46.875 FPS (1024 SPF)
Compression mode : Lossy
Delay relative to video : 15 ms
Stream size : 122 MiB (10%)
Default : Yes
Forced : No

DDT DAMNATION 2021

Complete name : DDT.2021.07.26.DAMNATION.Illegal.Assembly.Returns.Vol.4.JAPANESE.720p.WEB.h264-LATE.mkv
Format : Matroska
Format version : Version 4
File size : 2.71 GiB
Duration : 2 h 16 min
Overall bit rate mode : Variable
Overall bit rate : 2 848 kb/s

Video
ID : 1
Format : AVC
Duration : 2 h 16 min
Bit rate mode : Variable
Bit rate : 2 656 kb/s
Maximum bit rate : 8 000 kb/s
Width : 1 280 pixels
Height : 720 pixels
Display aspect ratio : 16:9
Frame rate mode : Constant
Frame rate : 29.970 (30000/1001) FPS
Color space : YUV
Chroma subsampling : 4:2:0
Bit depth : 8 bits
Scan type : Progressive
Bits/(Pixel*Frame) : 0.096
Stream size : 2.53 GiB (93%)
Default : Yes
Forced : No
Color range : Limited
Color primaries : BT.709
Transfer characteristics : BT.709
Matrix coefficients : BT.709

DDT DAMNATION 2021

Audio
ID : 2
Format : AAC LC
Format/Info : Advanced
Codec ID : A_AAC-2
Duration : 2 h 16 min
Bit rate : 192 kb/s
Channel(s) : 2 channels
Channel layout : L R
Sampling rate : 48.0 kHz
Frame rate : 46.875 FPS (1024 SPF)
Compression mode : Lossy
Delay relative to video : 15 ms
Stream size : 185 MiB (7%)
Default : Yes
Forced : No

Complete name : DDT.2021.07.26.DAMNATION.Illegal.Assembly.Returns.Vol.4.JAPANESE.1080p.WEB.h264-LATE.mkv
Format : Matroska
Format version : Version 4
File size : 6.44 GiB
Duration : 2 h 16 min
Overall bit rate mode : Variable
Overall bit rate : 6 760 kb/s

DDT DAMNATION 2021

Video
ID : 1
Format : AVC
Format/Info : Advanced Video
Duration : 2 h 16 min
Bit rate mode : Variable
Bit rate : 6 377 kb/s
Maximum bit rate : 18.0 Mb/s
Width : 1 920 pixels
Height : 1 080 pixels
Display aspect ratio : 16:9
Frame rate mode : Constant
Frame rate : 29.970 (30000/1001) FPS
Color space : YUV
Chroma subsampling : 4:2:0
Bit depth : 8 bits
Scan type : Progressive
Bits/(Pixel*Frame) : 0.103
Stream size : 6.07 GiB (94%)
Default : Yes
Forced : No
Color range : Limited
Color primaries : BT.709
Transfer characteristics : BT.709
Matrix coefficients : BT.709

DDT DAMNATION 2021

Audio
ID : 2
Format : AAC LC
Format/Info : Advanced Audio
Codec ID : A_AAC-2
Duration : 2 h 16 min
Bit rate : 384 kb/s
Channel(s) : 2 channels
Channel layout : L R
Sampling rate : 48.0 kHz
Frame rate : 46.875 FPS (1024 SPF)
Compression mode : Lossy
Delay relative to video : 15 ms
Stream size : 372 MiB (6%)
Default : Yes
Forced : No

Complete name : DDT.2021.07.26.DAMNATION.Illegal.Assembly.Returns.Vol.4.JAPANESE.WEB.h264-LATE.mkv
Format : Matroska
Format version : Version 4
File size : 1.24 GiB
Duration : 2 h 16 min
Overall bit rate mode : Variable
Overall bit rate : 1 305 kb/s

Video
ID : 1
Format : AVC
Format/Info : Advanced Video
Duration : 2 h 16 min
Bit rate mode : Variable
Bit rate : 1 177 kb/s
Maximum bit rate : 4 000 kb/s
Width : 960 pixels
Height : 540 pixels
Display aspect ratio : 16:9
Frame rate mode : Constant
Frame rate : 29.970 (30000/1001) FPS
Color space : YUV
Chroma subsampling : 4:2:0
Bit depth : 8 bits
Scan type : Progressive
Bits/(Pixel*Frame) : 0.076
Stream size : 1.12 GiB (90%)
Default : Yes
Forced : No
Color range : Limited
Color primaries : BT.709
Transfer characteristics : BT.709
Matrix coefficients : BT.709

DDT DAMNATION 2021

Audio
ID : 2
Format : AAC LC
Format/Info : Advanced Audio
Codec ID : A_AAC-2
Duration : 2 h 16 min
Bit rate : 125 kb/s
Channel(s) : 2 channels
Channel layout : L R
Sampling rate : 48.0 kHz
Frame rate : 46.875 FPS (1024 SPF)
Compression mode : Lossy
Delay relative to video : 15 ms
Stream size : 122 MiB (10%)
Default : Yes
Forced : No

DDT DAMNATION 2021

Complete name : DDT.2021.07.26.DAMNATION.Illegal.Assembly.Returns.Vol.4.JAPANESE.720p.WEB.h264-LATE.mkv
Format : Matroska
Format version : Version 4
File size : 2.71 GiB
Duration : 2 h 16 min
Overall bit rate mode : Variable
Overall bit rate : 2 848 kb/s

Video
ID : 1
Format : AVC
Duration : 2 h 16 min
Bit rate mode : Variable
Bit rate : 2 656 kb/s
Maximum bit rate : 8 000 kb/s
Width : 1 280 pixels
Height : 720 pixels
Display aspect ratio : 16:9
Frame rate mode : Constant
Frame rate : 29.970 (30000/1001) FPS
Color space : YUV
Chroma subsampling : 4:2:0
Bit depth : 8 bits
Scan type : Progressive
Bits/(Pixel*Frame) : 0.096
Stream size : 2.53 GiB (93%)
Default : Yes
Forced : No
Color range : Limited
Color primaries : BT.709
Transfer characteristics : BT.709
Matrix coefficients : BT.709

DDT DAMNATION 2021

Audio
ID : 2
Format : AAC LC
Format/Info : Advanced
Codec ID : A_AAC-2
Duration : 2 h 16 min
Bit rate : 192 kb/s
Channel(s) : 2 channels
Channel layout : L R
Sampling rate : 48.0 kHz
Frame rate : 46.875 FPS (1024 SPF)
Compression mode : Lossy
Delay relative to video : 15 ms
Stream size : 185 MiB (7%)
Default : Yes
Forced : No

Complete name : DDT.2021.07.26.DAMNATION.Illegal.Assembly.Returns.Vol.4.JAPANESE.1080p.WEB.h264-LATE.mkv
Format : Matroska
Format version : Version 4
File size : 6.44 GiB
Duration : 2 h 16 min
Overall bit rate mode : Variable
Overall bit rate : 6 760 kb/s

DDT DAMNATION 2021

Video
ID : 1
Format : AVC
Format/Info : Advanced Video
Duration : 2 h 16 min
Bit rate mode : Variable
Bit rate : 6 377 kb/s
Maximum bit rate : 18.0 Mb/s
Width : 1 920 pixels
Height : 1 080 pixels
Display aspect ratio : 16:9
Frame rate mode : Constant
Frame rate : 29.970 (30000/1001) FPS
Color space : YUV
Chroma subsampling : 4:2:0
Bit depth : 8 bits
Scan type : Progressive
Bits/(Pixel*Frame) : 0.103
Stream size : 6.07 GiB (94%)
Default : Yes
Forced : No
Color range : Limited
Color primaries : BT.709
Transfer characteristics : BT.709
Matrix coefficients : BT.709

DDT DAMNATION 2021

Audio
ID : 2
Format : AAC LC
Format/Info : Advanced Audio
Codec ID : A_AAC-2
Duration : 2 h 16 min
Bit rate : 384 kb/s
Channel(s) : 2 channels
Channel layout : L R
Sampling rate : 48.0 kHz
Frame rate : 46.875 FPS (1024 SPF)
Compression mode : Lossy
Delay relative to video : 15 ms
Stream size : 372 MiB (6%)
Default : Yes
Forced : No

Complete name : DDT.2021.07.26.DAMNATION.Illegal.Assembly.Returns.Vol.4.JAPANESE.WEB.h264-LATE.mkv
Format : Matroska
Format version : Version 4
File size : 1.24 GiB
Duration : 2 h 16 min
Overall bit rate mode : Variable
Overall bit rate : 1 305 kb/s

Video
ID : 1
Format : AVC
Format/Info : Advanced Video
Duration : 2 h 16 min
Bit rate mode : Variable
Bit rate : 1 177 kb/s
Maximum bit rate : 4 000 kb/s
Width : 960 pixels
Height : 540 pixels
Display aspect ratio : 16:9
Frame rate mode : Constant
Frame rate : 29.970 (30000/1001) FPS
Color space : YUV
Chroma subsampling : 4:2:0
Bit depth : 8 bits
Scan type : Progressive
Bits/(Pixel*Frame) : 0.076
Stream size : 1.12 GiB (90%)
Default : Yes
Forced : No
Color range : Limited
Color primaries : BT.709
Transfer characteristics : BT.709
Matrix coefficients : BT.709

DDT DAMNATION 2021

Audio
ID : 2
Format : AAC LC
Format/Info : Advanced Audio
Codec ID : A_AAC-2
Duration : 2 h 16 min
Bit rate : 125 kb/s
Channel(s) : 2 channels
Channel layout : L R
Sampling rate : 48.0 kHz
Frame rate : 46.875 FPS (1024 SPF)
Compression mode : Lossy
Delay relative to video : 15 ms
Stream size : 122 MiB (10%)
Default : Yes
Forced : No

DDT DAMNATION 2021

Complete name : DDT.2021.07.26.DAMNATION.Illegal.Assembly.Returns.Vol.4.JAPANESE.720p.WEB.h264-LATE.mkv
Format : Matroska
Format version : Version 4
File size : 2.71 GiB
Duration : 2 h 16 min
Overall bit rate mode : Variable
Overall bit rate : 2 848 kb/s

Video
ID : 1
Format : AVC
Duration : 2 h 16 min
Bit rate mode : Variable
Bit rate : 2 656 kb/s
Maximum bit rate : 8 000 kb/s
Width : 1 280 pixels
Height : 720 pixels
Display aspect ratio : 16:9
Frame rate mode : Constant
Frame rate : 29.970 (30000/1001) FPS
Color space : YUV
Chroma subsampling : 4:2:0
Bit depth : 8 bits
Scan type : Progressive
Bits/(Pixel*Frame) : 0.096
Stream size : 2.53 GiB (93%)
Default : Yes
Forced : No
Color range : Limited
Color primaries : BT.709
Transfer characteristics : BT.709
Matrix coefficients : BT.709

DDT DAMNATION 2021

Audio
ID : 2
Format : AAC LC
Format/Info : Advanced
Codec ID : A_AAC-2
Duration : 2 h 16 min
Bit rate : 192 kb/s
Channel(s) : 2 channels
Channel layout : L R
Sampling rate : 48.0 kHz
Frame rate : 46.875 FPS (1024 SPF)
Compression mode : Lossy
Delay relative to video : 15 ms
Stream size : 185 MiB (7%)
Default : Yes
Forced : No

Complete name : DDT.2021.07.26.DAMNATION.Illegal.Assembly.Returns.Vol.4.JAPANESE.1080p.WEB.h264-LATE.mkv
Format : Matroska
Format version : Version 4
File size : 6.44 GiB
Duration : 2 h 16 min
Overall bit rate mode : Variable
Overall bit rate : 6 760 kb/s

DDT DAMNATION 2021

Video
ID : 1
Format : AVC
Format/Info : Advanced Video
Duration : 2 h 16 min
Bit rate mode : Variable
Bit rate : 6 377 kb/s
Maximum bit rate : 18.0 Mb/s
Width : 1 920 pixels
Height : 1 080 pixels
Display aspect ratio : 16:9
Frame rate mode : Constant
Frame rate : 29.970 (30000/1001) FPS
Color space : YUV
Chroma subsampling : 4:2:0
Bit depth : 8 bits
Scan type : Progressive
Bits/(Pixel*Frame) : 0.103
Stream size : 6.07 GiB (94%)
Default : Yes
Forced : No
Color range : Limited
Color primaries : BT.709
Transfer characteristics : BT.709
Matrix coefficients : BT.709

DDT DAMNATION 2021

Audio
ID : 2
Format : AAC LC
Format/Info : Advanced Audio
Codec ID : A_AAC-2
Duration : 2 h 16 min
Bit rate : 384 kb/s
Channel(s) : 2 channels
Channel layout : L R
Sampling rate : 48.0 kHz
Frame rate : 46.875 FPS (1024 SPF)
Compression mode : Lossy
Delay relative to video : 15 ms
Stream size : 372 MiB (6%)
Default : Yes
Forced : No

Complete name : DDT.2021.07.26.DAMNATION.Illegal.Assembly.Returns.Vol.4.JAPANESE.WEB.h264-LATE.mkv
Format : Matroska
Format version : Version 4
File size : 1.24 GiB
Duration : 2 h 16 min
Overall bit rate mode : Variable
Overall bit rate : 1 305 kb/s

Video
ID : 1
Format : AVC
Format/Info : Advanced Video
Duration : 2 h 16 min
Bit rate mode : Variable
Bit rate : 1 177 kb/s
Maximum bit rate : 4 000 kb/s
Width : 960 pixels
Height : 540 pixels
Display aspect ratio : 16:9
Frame rate mode : Constant
Frame rate : 29.970 (30000/1001) FPS
Color space : YUV
Chroma subsampling : 4:2:0
Bit depth : 8 bits
Scan type : Progressive
Bits/(Pixel*Frame) : 0.076
Stream size : 1.12 GiB (90%)
Default : Yes
Forced : No
Color range : Limited
Color primaries : BT.709
Transfer characteristics : BT.709
Matrix coefficients : BT.709

DDT DAMNATION 2021

Audio
ID : 2
Format : AAC LC
Format/Info : Advanced Audio
Codec ID : A_AAC-2
Duration : 2 h 16 min
Bit rate : 125 kb/s
Channel(s) : 2 channels
Channel layout : L R
Sampling rate : 48.0 kHz
Frame rate : 46.875 FPS (1024 SPF)
Compression mode : Lossy
Delay relative to video : 15 ms
Stream size : 122 MiB (10%)
Default : Yes
Forced : No

DDT DAMNATION 2021

Complete name : DDT.2021.07.26.DAMNATION.Illegal.Assembly.Returns.Vol.4.JAPANESE.720p.WEB.h264-LATE.mkv
Format : Matroska
Format version : Version 4
File size : 2.71 GiB
Duration : 2 h 16 min
Overall bit rate mode : Variable
Overall bit rate : 2 848 kb/s

Video
ID : 1
Format : AVC
Duration : 2 h 16 min
Bit rate mode : Variable
Bit rate : 2 656 kb/s
Maximum bit rate : 8 000 kb/s
Width : 1 280 pixels
Height : 720 pixels
Display aspect ratio : 16:9
Frame rate mode : Constant
Frame rate : 29.970 (30000/1001) FPS
Color space : YUV
Chroma subsampling : 4:2:0
Bit depth : 8 bits
Scan type : Progressive
Bits/(Pixel*Frame) : 0.096
Stream size : 2.53 GiB (93%)
Default : Yes
Forced : No
Color range : Limited
Color primaries : BT.709
Transfer characteristics : BT.709
Matrix coefficients : BT.709

DDT DAMNATION 2021

Audio
ID : 2
Format : AAC LC
Format/Info : Advanced
Codec ID : A_AAC-2
Duration : 2 h 16 min
Bit rate : 192 kb/s
Channel(s) : 2 channels
Channel layout : L R
Sampling rate : 48.0 kHz
Frame rate : 46.875 FPS (1024 SPF)
Compression mode : Lossy
Delay relative to video : 15 ms
Stream size : 185 MiB (7%)
Default : Yes
Forced : No

Complete name : DDT.2021.07.26.DAMNATION.Illegal.Assembly.Returns.Vol.4.JAPANESE.1080p.WEB.h264-LATE.mkv
Format : Matroska
Format version : Version 4
File size : 6.44 GiB
Duration : 2 h 16 min
Overall bit rate mode : Variable
Overall bit rate : 6 760 kb/s

DDT DAMNATION 2021

Video
ID : 1
Format : AVC
Format/Info : Advanced Video
Duration : 2 h 16 min
Bit rate mode : Variable
Bit rate : 6 377 kb/s
Maximum bit rate : 18.0 Mb/s
Width : 1 920 pixels
Height : 1 080 pixels
Display aspect ratio : 16:9
Frame rate mode : Constant
Frame rate : 29.970 (30000/1001) FPS
Color space : YUV
Chroma subsampling : 4:2:0
Bit depth : 8 bits
Scan type : Progressive
Bits/(Pixel*Frame) : 0.103
Stream size : 6.07 GiB (94%)
Default : Yes
Forced : No
Color range : Limited
Color primaries : BT.709
Transfer characteristics : BT.709
Matrix coefficients : BT.709

DDT DAMNATION 2021

Audio
ID : 2
Format : AAC LC
Format/Info : Advanced Audio
Codec ID : A_AAC-2
Duration : 2 h 16 min
Bit rate : 384 kb/s
Channel(s) : 2 channels
Channel layout : L R
Sampling rate : 48.0 kHz
Frame rate : 46.875 FPS (1024 SPF)
Compression mode : Lossy
Delay relative to video : 15 ms
Stream size : 372 MiB (6%)
Default : Yes
Forced : No

Complete name : DDT.2021.07.26.DAMNATION.Illegal.Assembly.Returns.Vol.4.JAPANESE.WEB.h264-LATE.mkv
Format : Matroska
Format version : Version 4
File size : 1.24 GiB
Duration : 2 h 16 min
Overall bit rate mode : Variable
Overall bit rate : 1 305 kb/s

Video
ID : 1
Format : AVC
Format/Info : Advanced Video
Duration : 2 h 16 min
Bit rate mode : Variable
Bit rate : 1 177 kb/s
Maximum bit rate : 4 000 kb/s
Width : 960 pixels
Height : 540 pixels
Display aspect ratio : 16:9
Frame rate mode : Constant
Frame rate : 29.970 (30000/1001) FPS
Color space : YUV
Chroma subsampling : 4:2:0
Bit depth : 8 bits
Scan type : Progressive
Bits/(Pixel*Frame) : 0.076
Stream size : 1.12 GiB (90%)
Default : Yes
Forced : No
Color range : Limited
Color primaries : BT.709
Transfer characteristics : BT.709
Matrix coefficients : BT.709

DDT DAMNATION 2021

Audio
ID : 2
Format : AAC LC
Format/Info : Advanced Audio
Codec ID : A_AAC-2
Duration : 2 h 16 min
Bit rate : 125 kb/s
Channel(s) : 2 channels
Channel layout : L R
Sampling rate : 48.0 kHz
Frame rate : 46.875 FPS (1024 SPF)
Compression mode : Lossy
Delay relative to video : 15 ms
Stream size : 122 MiB (10%)
Default : Yes
Forced : No

DDT DAMNATION 2021

Complete name : DDT.2021.07.26.DAMNATION.Illegal.Assembly.Returns.Vol.4.JAPANESE.720p.WEB.h264-LATE.mkv
Format : Matroska
Format version : Version 4
File size : 2.71 GiB
Duration : 2 h 16 min
Overall bit rate mode : Variable
Overall bit rate : 2 848 kb/s

Video
ID : 1
Format : AVC
Duration : 2 h 16 min
Bit rate mode : Variable
Bit rate : 2 656 kb/s
Maximum bit rate : 8 000 kb/s
Width : 1 280 pixels
Height : 720 pixels
Display aspect ratio : 16:9
Frame rate mode : Constant
Frame rate : 29.970 (30000/1001) FPS
Color space : YUV
Chroma subsampling : 4:2:0
Bit depth : 8 bits
Scan type : Progressive
Bits/(Pixel*Frame) : 0.096
Stream size : 2.53 GiB (93%)
Default : Yes
Forced : No
Color range : Limited
Color primaries : BT.709
Transfer characteristics : BT.709
Matrix coefficients : BT.709

DDT DAMNATION 2021

Audio
ID : 2
Format : AAC LC
Format/Info : Advanced
Codec ID : A_AAC-2
Duration : 2 h 16 min
Bit rate : 192 kb/s
Channel(s) : 2 channels
Channel layout : L R
Sampling rate : 48.0 kHz
Frame rate : 46.875 FPS (1024 SPF)
Compression mode : Lossy
Delay relative to video : 15 ms
Stream size : 185 MiB (7%)
Default : Yes
Forced : No

Complete name : DDT.2021.07.26.DAMNATION.Illegal.Assembly.Returns.Vol.4.JAPANESE.1080p.WEB.h264-LATE.mkv
Format : Matroska
Format version : Version 4
File size : 6.44 GiB
Duration : 2 h 16 min
Overall bit rate mode : Variable
Overall bit rate : 6 760 kb/s

DDT DAMNATION 2021

Video
ID : 1
Format : AVC
Format/Info : Advanced Video
Duration : 2 h 16 min
Bit rate mode : Variable
Bit rate : 6 377 kb/s
Maximum bit rate : 18.0 Mb/s
Width : 1 920 pixels
Height : 1 080 pixels
Display aspect ratio : 16:9
Frame rate mode : Constant
Frame rate : 29.970 (30000/1001) FPS
Color space : YUV
Chroma subsampling : 4:2:0
Bit depth : 8 bits
Scan type : Progressive
Bits/(Pixel*Frame) : 0.103
Stream size : 6.07 GiB (94%)
Default : Yes
Forced : No
Color range : Limited
Color primaries : BT.709
Transfer characteristics : BT.709
Matrix coefficients : BT.709

DDT DAMNATION 2021

Audio
ID : 2
Format : AAC LC
Format/Info : Advanced Audio
Codec ID : A_AAC-2
Duration : 2 h 16 min
Bit rate : 384 kb/s
Channel(s) : 2 channels
Channel layout : L R
Sampling rate : 48.0 kHz
Frame rate : 46.875 FPS (1024 SPF)
Compression mode : Lossy
Delay relative to video : 15 ms
Stream size : 372 MiB (6%)
Default : Yes
Forced : No

Complete name : DDT.2021.07.26.DAMNATION.Illegal.Assembly.Returns.Vol.4.JAPANESE.WEB.h264-LATE.mkv
Format : Matroska
Format version : Version 4
File size : 1.24 GiB
Duration : 2 h 16 min
Overall bit rate mode : Variable
Overall bit rate : 1 305 kb/s

Video
ID : 1
Format : AVC
Format/Info : Advanced Video
Duration : 2 h 16 min
Bit rate mode : Variable
Bit rate : 1 177 kb/s
Maximum bit rate : 4 000 kb/s
Width : 960 pixels
Height : 540 pixels
Display aspect ratio : 16:9
Frame rate mode : Constant
Frame rate : 29.970 (30000/1001) FPS
Color space : YUV
Chroma subsampling : 4:2:0
Bit depth : 8 bits
Scan type : Progressive
Bits/(Pixel*Frame) : 0.076
Stream size : 1.12 GiB (90%)
Default : Yes
Forced : No
Color range : Limited
Color primaries : BT.709
Transfer characteristics : BT.709
Matrix coefficients : BT.709

DDT DAMNATION 2021

Audio
ID : 2
Format : AAC LC
Format/Info : Advanced Audio
Codec ID : A_AAC-2
Duration : 2 h 16 min
Bit rate : 125 kb/s
Channel(s) : 2 channels
Channel layout : L R
Sampling rate : 48.0 kHz
Frame rate : 46.875 FPS (1024 SPF)
Compression mode : Lossy
Delay relative to video : 15 ms
Stream size : 122 MiB (10%)
Default : Yes
Forced : No

DDT DAMNATION 2021

Complete name : DDT.2021.07.26.DAMNATION.Illegal.Assembly.Returns.Vol.4.JAPANESE.720p.WEB.h264-LATE.mkv
Format : Matroska
Format version : Version 4
File size : 2.71 GiB
Duration : 2 h 16 min
Overall bit rate mode : Variable
Overall bit rate : 2 848 kb/s

Video
ID : 1
Format : AVC
Duration : 2 h 16 min
Bit rate mode : Variable
Bit rate : 2 656 kb/s
Maximum bit rate : 8 000 kb/s
Width : 1 280 pixels
Height : 720 pixels
Display aspect ratio : 16:9
Frame rate mode : Constant
Frame rate : 29.970 (30000/1001) FPS
Color space : YUV
Chroma subsampling : 4:2:0
Bit depth : 8 bits
Scan type : Progressive
Bits/(Pixel*Frame) : 0.096
Stream size : 2.53 GiB (93%)
Default : Yes
Forced : No
Color range : Limited
Color primaries : BT.709
Transfer characteristics : BT.709
Matrix coefficients : BT.709

DDT DAMNATION 2021

Audio
ID : 2
Format : AAC LC
Format/Info : Advanced
Codec ID : A_AAC-2
Duration : 2 h 16 min
Bit rate : 192 kb/s
Channel(s) : 2 channels
Channel layout : L R
Sampling rate : 48.0 kHz
Frame rate : 46.875 FPS (1024 SPF)
Compression mode : Lossy
Delay relative to video : 15 ms
Stream size : 185 MiB (7%)
Default : Yes
Forced : No

Complete name : DDT.2021.07.26.DAMNATION.Illegal.Assembly.Returns.Vol.4.JAPANESE.1080p.WEB.h264-LATE.mkv
Format : Matroska
Format version : Version 4
File size : 6.44 GiB
Duration : 2 h 16 min
Overall bit rate mode : Variable
Overall bit rate : 6 760 kb/s

DDT DAMNATION 2021

Video
ID : 1
Format : AVC
Format/Info : Advanced Video
Duration : 2 h 16 min
Bit rate mode : Variable
Bit rate : 6 377 kb/s
Maximum bit rate : 18.0 Mb/s
Width : 1 920 pixels
Height : 1 080 pixels
Display aspect ratio : 16:9
Frame rate mode : Constant
Frame rate : 29.970 (30000/1001) FPS
Color space : YUV
Chroma subsampling : 4:2:0
Bit depth : 8 bits
Scan type : Progressive
Bits/(Pixel*Frame) : 0.103
Stream size : 6.07 GiB (94%)
Default : Yes
Forced : No
Color range : Limited
Color primaries : BT.709
Transfer characteristics : BT.709
Matrix coefficients : BT.709

DDT DAMNATION 2021

Audio
ID : 2
Format : AAC LC
Format/Info : Advanced Audio
Codec ID : A_AAC-2
Duration : 2 h 16 min
Bit rate : 384 kb/s
Channel(s) : 2 channels
Channel layout : L R
Sampling rate : 48.0 kHz
Frame rate : 46.875 FPS (1024 SPF)
Compression mode : Lossy
Delay relative to video : 15 ms
Stream size : 372 MiB (6%)
Default : Yes
Forced : No

Complete name : DDT.2021.07.26.DAMNATION.Illegal.Assembly.Returns.Vol.4.JAPANESE.WEB.h264-LATE.mkv
Format : Matroska
Format version : Version 4
File size : 1.24 GiB
Duration : 2 h 16 min
Overall bit rate mode : Variable
Overall bit rate : 1 305 kb/s

Video
ID : 1
Format : AVC
Format/Info : Advanced Video
Duration : 2 h 16 min
Bit rate mode : Variable
Bit rate : 1 177 kb/s
Maximum bit rate : 4 000 kb/s
Width : 960 pixels
Height : 540 pixels
Display aspect ratio : 16:9
Frame rate mode : Constant
Frame rate : 29.970 (30000/1001) FPS
Color space : YUV
Chroma subsampling : 4:2:0
Bit depth : 8 bits
Scan type : Progressive
Bits/(Pixel*Frame) : 0.076
Stream size : 1.12 GiB (90%)
Default : Yes
Forced : No
Color range : Limited
Color primaries : BT.709
Transfer characteristics : BT.709
Matrix coefficients : BT.709

DDT DAMNATION 2021

Audio
ID : 2
Format : AAC LC
Format/Info : Advanced Audio
Codec ID : A_AAC-2
Duration : 2 h 16 min
Bit rate : 125 kb/s
Channel(s) : 2 channels
Channel layout : L R
Sampling rate : 48.0 kHz
Frame rate : 46.875 FPS (1024 SPF)
Compression mode : Lossy
Delay relative to video : 15 ms
Stream size : 122 MiB (10%)
Default : Yes
Forced : No

DDT DAMNATION 2021

Complete name : DDT.2021.07.26.DAMNATION.Illegal.Assembly.Returns.Vol.4.JAPANESE.720p.WEB.h264-LATE.mkv
Format : Matroska
Format version : Version 4
File size : 2.71 GiB
Duration : 2 h 16 min
Overall bit rate mode : Variable
Overall bit rate : 2 848 kb/s

Video
ID : 1
Format : AVC
Duration : 2 h 16 min
Bit rate mode : Variable
Bit rate : 2 656 kb/s
Maximum bit rate : 8 000 kb/s
Width : 1 280 pixels
Height : 720 pixels
Display aspect ratio : 16:9
Frame rate mode : Constant
Frame rate : 29.970 (30000/1001) FPS
Color space : YUV
Chroma subsampling : 4:2:0
Bit depth : 8 bits
Scan type : Progressive
Bits/(Pixel*Frame) : 0.096
Stream size : 2.53 GiB (93%)
Default : Yes
Forced : No
Color range : Limited
Color primaries : BT.709
Transfer characteristics : BT.709
Matrix coefficients : BT.709

DDT DAMNATION 2021

Audio
ID : 2
Format : AAC LC
Format/Info : Advanced
Codec ID : A_AAC-2
Duration : 2 h 16 min
Bit rate : 192 kb/s
Channel(s) : 2 channels
Channel layout : L R
Sampling rate : 48.0 kHz
Frame rate : 46.875 FPS (1024 SPF)
Compression mode : Lossy
Delay relative to video : 15 ms
Stream size : 185 MiB (7%)
Default : Yes
Forced : No

Complete name : DDT.2021.07.26.DAMNATION.Illegal.Assembly.Returns.Vol.4.JAPANESE.1080p.WEB.h264-LATE.mkv
Format : Matroska
Format version : Version 4
File size : 6.44 GiB
Duration : 2 h 16 min
Overall bit rate mode : Variable
Overall bit rate : 6 760 kb/s

DDT DAMNATION 2021

Video
ID : 1
Format : AVC
Format/Info : Advanced Video
Duration : 2 h 16 min
Bit rate mode : Variable
Bit rate : 6 377 kb/s
Maximum bit rate : 18.0 Mb/s
Width : 1 920 pixels
Height : 1 080 pixels
Display aspect ratio : 16:9
Frame rate mode : Constant
Frame rate : 29.970 (30000/1001) FPS
Color space : YUV
Chroma subsampling : 4:2:0
Bit depth : 8 bits
Scan type : Progressive
Bits/(Pixel*Frame) : 0.103
Stream size : 6.07 GiB (94%)
Default : Yes
Forced : No
Color range : Limited
Color primaries : BT.709
Transfer characteristics : BT.709
Matrix coefficients : BT.709

DDT DAMNATION 2021

Audio
ID : 2
Format : AAC LC
Format/Info : Advanced Audio
Codec ID : A_AAC-2
Duration : 2 h 16 min
Bit rate : 384 kb/s
Channel(s) : 2 channels
Channel layout : L R
Sampling rate : 48.0 kHz
Frame rate : 46.875 FPS (1024 SPF)
Compression mode : Lossy
Delay relative to video : 15 ms
Stream size : 372 MiB (6%)
Default : Yes
Forced : No

Complete name : DDT.2021.07.26.DAMNATION.Illegal.Assembly.Returns.Vol.4.JAPANESE.WEB.h264-LATE.mkv
Format : Matroska
Format version : Version 4
File size : 1.24 GiB
Duration : 2 h 16 min
Overall bit rate mode : Variable
Overall bit rate : 1 305 kb/s

Video
ID : 1
Format : AVC
Format/Info : Advanced Video
Duration : 2 h 16 min
Bit rate mode : Variable
Bit rate : 1 177 kb/s
Maximum bit rate : 4 000 kb/s
Width : 960 pixels
Height : 540 pixels
Display aspect ratio : 16:9
Frame rate mode : Constant
Frame rate : 29.970 (30000/1001) FPS
Color space : YUV
Chroma subsampling : 4:2:0
Bit depth : 8 bits
Scan type : Progressive
Bits/(Pixel*Frame) : 0.076
Stream size : 1.12 GiB (90%)
Default : Yes
Forced : No
Color range : Limited
Color primaries : BT.709
Transfer characteristics : BT.709
Matrix coefficients : BT.709

DDT DAMNATION 2021

Audio
ID : 2
Format : AAC LC
Format/Info : Advanced Audio
Codec ID : A_AAC-2
Duration : 2 h 16 min
Bit rate : 125 kb/s
Channel(s) : 2 channels
Channel layout : L R
Sampling rate : 48.0 kHz
Frame rate : 46.875 FPS (1024 SPF)
Compression mode : Lossy
Delay relative to video : 15 ms
Stream size : 122 MiB (10%)
Default : Yes
Forced : No

DDT DAMNATION 2021

 

[collapse]

 

 

https://dx-tv.com/

Leave a Reply

Your email address will not be published. Required fields are marked *

This site uses Akismet to reduce spam. Learn how your comment data is processed.