DDT Beer Garden Like Wrestling 2021 Day 3 Online Free

DDT Beer Garden Like Wrestling 2021 08 01 Day 3 Online Free Replay DX-TV

Contents show

DDT Beer Garden Like Wrestling 2021

 DDT Beer Garden Like Wrestling 2021

 

 

 

Download Links with premium High Speed


 

Dopapk

 

 

Show Links

 

http://shrt10.com/haBnD
http://shrt10.com/0Iz5M
http://shrt10.com/KECpppvpC

 

[collapse]

 

 

Nitroflare

 

 

Show Links

 

http://shrt10.com/gpksyqb
http://shrt10.com/xuVnfx
http://shrt10.com/XXAs16Zh

 

[collapse]

 

 

Rapidgator

 

 

Show Links

 

http://shrt10.com/k1n6BMuXf
http://shrt10.com/59jGz
http://shrt10.com/eOwzgQ6

 

[collapse]

 

 

Uploaded

 

 

Show Links

 

http://shrt10.com/2P5eBwm6j
http://shrt10.com/x2D8DljAc

 

[collapse]

 

 

Watch online

 

Server 1

 

 

 

 

watch now

 

 

 

 

Server-2

 

 

 

 

watch now

 

 

 

|Server-3

 

 

 

 

watch now

 

 

Uploaded By Site DX-TV.com

 

 

Show Info This Show

 

DDT Beer Garden Like Wrestling 2021

Complete name : DDT.2021.08.01.Beer.Garden-Like.Wrestling.2021.Day.3.720p.WEB.h264-LATE.mkv
Format : Matroska
Format version : Version 4
File size : 3.14 GiB
Duration : 2 h 49 min
Overall bit rate mode : Variable
Overall bit rate : 2 651 kb/s

Video
ID : 1
Format : AVC
Format/Info : Advanced Video
Duration : 2 h 49 min
Bit rate mode : Variable
Bit rate : 2 459 kb/s
Maximum bit rate : 8 000 kb/s
Width : 1 280 pixels
Height : 720 pixels
Display aspect ratio : 16:9
Frame rate mode : Constant
Frame rate : 29.970 (30000/1001) FPS
Color space : YUV
Chroma subsampling : 4:2:0
Bit depth : 8 bits
Scan type : Progressive
Bits/(Pixel*Frame) : 0.089
Stream size : 2.92 GiB (93%)
Default : Yes
Forced : No
Color range : Limited
Color primaries : BT.709
Transfer characteristics : BT.709
Matrix coefficients : BT.709

DDT Beer Garden Like Wrestling 2021

Audio
ID : 2
Format : AAC LC
Format/Info : Advanced Audio
Codec ID : A_AAC-2
Duration : 2 h 49 min
Bit rate : 192 kb/s
Channel(s) : 2 channels
Channel layout : L R
Sampling rate : 48.0 kHz
Frame rate : 46.875 FPS (1024 SPF)
Compression mode : Lossy
Delay relative to video : 20 ms
Stream size : 230 MiB (7%)
Default : Yes
Forced : No

Complete name : DDT.2021.08.01.Beer.Garden-Like.Wrestling.2021.Day.3.1080p.WEB.h264-LATE.mkv
Format : Matroska
Format version : Version 4
File size : 7.78 GiB
Duration : 2 h 49 min
Overall bit rate mode : Variable
Overall bit rate : 6 564 kb/s

DDT Beer Garden Like Wrestling 2021

Video
ID : 1
Format : AVC
Format/Info : Advanced Video
Duration : 2 h 49 min
Bit rate mode : Variable
Bit rate : 6 180 kb/s
Maximum bit rate : 18.0 Mb/s
Width : 1 920 pixels
Height : 1 080 pixels
Display aspect ratio : 16:9
Frame rate mode : Constant
Frame rate : 29.970 (30000/1001) FPS
Color space : YUV
Chroma subsampling : 4:2:0
Bit depth : 8 bits
Scan type : Progressive
Bits/(Pixel*Frame) : 0.099
Stream size : 7.33 GiB (94%)
Default : Yes
Forced : No
Color range : Limited
Color primaries : BT.709
Transfer characteristics : BT.709
Matrix coefficients : BT.709

DDT Beer Garden Like Wrestling 2021

Audio
ID : 2
Format : AAC LC
Format/Info : Advanced Audio
Codec ID : A_AAC-2
Duration : 2 h 49 min
Bit rate : 384 kb/s
Channel(s) : 2 channels
Channel layout : L R
Sampling rate : 48.0 kHz
Frame rate : 46.875 FPS (1024 SPF)
Compression mode : Lossy
Delay relative to video : 20 ms
Stream size : 463 MiB (6%)
Default : Yes
Forced : No

Complete name : DDT.2021.08.01.Beer.Garden-Like.Wrestling.2021.Day.3.WEB.h264-LATE.mkv
Format : Matroska
Format version : Version 4
File size : 1.46 GiB
Duration : 2 h 49 min
Overall bit rate mode : Variable
Overall bit rate : 1 232 kb/s

DDT Beer Garden Like Wrestling 2021

Video
ID : 1
Format : AVC
Duration : 2 h 49 min
Bit rate mode : Variable
Bit rate : 1 104 kb/s
Maximum bit rate : 4 000 kb/s
Width : 960 pixels
Height : 540 pixels
Display aspect ratio : 16:9
Frame rate mode : Constant
Frame rate : 29.970 (30000/1001) FPS
Color space : YUV
Chroma subsampling : 4:2:0
Bit depth : 8 bits
Scan type : Progressive
Bits/(Pixel*Frame) : 0.071
Stream size : 1.31 GiB (90%)
Default : Yes
Forced : No
Color range : Limited
Color primaries : BT.709
Transfer characteristics : BT.709
Matrix coefficients : BT.709

Audio
ID : 2
Format : AAC LC
Codec ID : A_AAC-2
Duration : 2 h 49 min
Bit rate : 125 kb/s
Channel(s) : 2 channels
Channel layout : L R
Sampling rate : 48.0 kHz
Frame rate : 46.875 FPS (1024 SPF)
Compression mode : Lossy
Delay relative to video : 20 ms
Stream size : 152 MiB (10%)
Default : Yes
Forced : No

DDT Beer Garden Like Wrestling 2021

Complete name : DDT.2021.08.01.Beer.Garden-Like.Wrestling.2021.Day.3.720p.WEB.h264-LATE.mkv
Format : Matroska
Format version : Version 4
File size : 3.14 GiB
Duration : 2 h 49 min
Overall bit rate mode : Variable
Overall bit rate : 2 651 kb/s

Video
ID : 1
Format : AVC
Format/Info : Advanced Video
Duration : 2 h 49 min
Bit rate mode : Variable
Bit rate : 2 459 kb/s
Maximum bit rate : 8 000 kb/s
Width : 1 280 pixels
Height : 720 pixels
Display aspect ratio : 16:9
Frame rate mode : Constant
Frame rate : 29.970 (30000/1001) FPS
Color space : YUV
Chroma subsampling : 4:2:0
Bit depth : 8 bits
Scan type : Progressive
Bits/(Pixel*Frame) : 0.089
Stream size : 2.92 GiB (93%)
Default : Yes
Forced : No
Color range : Limited
Color primaries : BT.709
Transfer characteristics : BT.709
Matrix coefficients : BT.709

DDT Beer Garden Like Wrestling 2021

Audio
ID : 2
Format : AAC LC
Format/Info : Advanced Audio
Codec ID : A_AAC-2
Duration : 2 h 49 min
Bit rate : 192 kb/s
Channel(s) : 2 channels
Channel layout : L R
Sampling rate : 48.0 kHz
Frame rate : 46.875 FPS (1024 SPF)
Compression mode : Lossy
Delay relative to video : 20 ms
Stream size : 230 MiB (7%)
Default : Yes
Forced : No

Complete name : DDT.2021.08.01.Beer.Garden-Like.Wrestling.2021.Day.3.1080p.WEB.h264-LATE.mkv
Format : Matroska
Format version : Version 4
File size : 7.78 GiB
Duration : 2 h 49 min
Overall bit rate mode : Variable
Overall bit rate : 6 564 kb/s

DDT Beer Garden Like Wrestling 2021

Video
ID : 1
Format : AVC
Format/Info : Advanced Video
Duration : 2 h 49 min
Bit rate mode : Variable
Bit rate : 6 180 kb/s
Maximum bit rate : 18.0 Mb/s
Width : 1 920 pixels
Height : 1 080 pixels
Display aspect ratio : 16:9
Frame rate mode : Constant
Frame rate : 29.970 (30000/1001) FPS
Color space : YUV
Chroma subsampling : 4:2:0
Bit depth : 8 bits
Scan type : Progressive
Bits/(Pixel*Frame) : 0.099
Stream size : 7.33 GiB (94%)
Default : Yes
Forced : No
Color range : Limited
Color primaries : BT.709
Transfer characteristics : BT.709
Matrix coefficients : BT.709

DDT Beer Garden Like Wrestling 2021

Audio
ID : 2
Format : AAC LC
Format/Info : Advanced Audio
Codec ID : A_AAC-2
Duration : 2 h 49 min
Bit rate : 384 kb/s
Channel(s) : 2 channels
Channel layout : L R
Sampling rate : 48.0 kHz
Frame rate : 46.875 FPS (1024 SPF)
Compression mode : Lossy
Delay relative to video : 20 ms
Stream size : 463 MiB (6%)
Default : Yes
Forced : No

Complete name : DDT.2021.08.01.Beer.Garden-Like.Wrestling.2021.Day.3.WEB.h264-LATE.mkv
Format : Matroska
Format version : Version 4
File size : 1.46 GiB
Duration : 2 h 49 min
Overall bit rate mode : Variable
Overall bit rate : 1 232 kb/s

DDT Beer Garden Like Wrestling 2021

Video
ID : 1
Format : AVC
Duration : 2 h 49 min
Bit rate mode : Variable
Bit rate : 1 104 kb/s
Maximum bit rate : 4 000 kb/s
Width : 960 pixels
Height : 540 pixels
Display aspect ratio : 16:9
Frame rate mode : Constant
Frame rate : 29.970 (30000/1001) FPS
Color space : YUV
Chroma subsampling : 4:2:0
Bit depth : 8 bits
Scan type : Progressive
Bits/(Pixel*Frame) : 0.071
Stream size : 1.31 GiB (90%)
Default : Yes
Forced : No
Color range : Limited
Color primaries : BT.709
Transfer characteristics : BT.709
Matrix coefficients : BT.709

Audio
ID : 2
Format : AAC LC
Codec ID : A_AAC-2
Duration : 2 h 49 min
Bit rate : 125 kb/s
Channel(s) : 2 channels
Channel layout : L R
Sampling rate : 48.0 kHz
Frame rate : 46.875 FPS (1024 SPF)
Compression mode : Lossy
Delay relative to video : 20 ms
Stream size : 152 MiB (10%)
Default : Yes
Forced : No

DDT Beer Garden Like Wrestling 2021

Complete name : DDT.2021.08.01.Beer.Garden-Like.Wrestling.2021.Day.3.720p.WEB.h264-LATE.mkv
Format : Matroska
Format version : Version 4
File size : 3.14 GiB
Duration : 2 h 49 min
Overall bit rate mode : Variable
Overall bit rate : 2 651 kb/s

Video
ID : 1
Format : AVC
Format/Info : Advanced Video
Duration : 2 h 49 min
Bit rate mode : Variable
Bit rate : 2 459 kb/s
Maximum bit rate : 8 000 kb/s
Width : 1 280 pixels
Height : 720 pixels
Display aspect ratio : 16:9
Frame rate mode : Constant
Frame rate : 29.970 (30000/1001) FPS
Color space : YUV
Chroma subsampling : 4:2:0
Bit depth : 8 bits
Scan type : Progressive
Bits/(Pixel*Frame) : 0.089
Stream size : 2.92 GiB (93%)
Default : Yes
Forced : No
Color range : Limited
Color primaries : BT.709
Transfer characteristics : BT.709
Matrix coefficients : BT.709

DDT Beer Garden Like Wrestling 2021

Audio
ID : 2
Format : AAC LC
Format/Info : Advanced Audio
Codec ID : A_AAC-2
Duration : 2 h 49 min
Bit rate : 192 kb/s
Channel(s) : 2 channels
Channel layout : L R
Sampling rate : 48.0 kHz
Frame rate : 46.875 FPS (1024 SPF)
Compression mode : Lossy
Delay relative to video : 20 ms
Stream size : 230 MiB (7%)
Default : Yes
Forced : No

Complete name : DDT.2021.08.01.Beer.Garden-Like.Wrestling.2021.Day.3.1080p.WEB.h264-LATE.mkv
Format : Matroska
Format version : Version 4
File size : 7.78 GiB
Duration : 2 h 49 min
Overall bit rate mode : Variable
Overall bit rate : 6 564 kb/s

DDT Beer Garden Like Wrestling 2021

Video
ID : 1
Format : AVC
Format/Info : Advanced Video
Duration : 2 h 49 min
Bit rate mode : Variable
Bit rate : 6 180 kb/s
Maximum bit rate : 18.0 Mb/s
Width : 1 920 pixels
Height : 1 080 pixels
Display aspect ratio : 16:9
Frame rate mode : Constant
Frame rate : 29.970 (30000/1001) FPS
Color space : YUV
Chroma subsampling : 4:2:0
Bit depth : 8 bits
Scan type : Progressive
Bits/(Pixel*Frame) : 0.099
Stream size : 7.33 GiB (94%)
Default : Yes
Forced : No
Color range : Limited
Color primaries : BT.709
Transfer characteristics : BT.709
Matrix coefficients : BT.709

DDT Beer Garden Like Wrestling 2021

Audio
ID : 2
Format : AAC LC
Format/Info : Advanced Audio
Codec ID : A_AAC-2
Duration : 2 h 49 min
Bit rate : 384 kb/s
Channel(s) : 2 channels
Channel layout : L R
Sampling rate : 48.0 kHz
Frame rate : 46.875 FPS (1024 SPF)
Compression mode : Lossy
Delay relative to video : 20 ms
Stream size : 463 MiB (6%)
Default : Yes
Forced : No

Complete name : DDT.2021.08.01.Beer.Garden-Like.Wrestling.2021.Day.3.WEB.h264-LATE.mkv
Format : Matroska
Format version : Version 4
File size : 1.46 GiB
Duration : 2 h 49 min
Overall bit rate mode : Variable
Overall bit rate : 1 232 kb/s

DDT Beer Garden Like Wrestling 2021

Video
ID : 1
Format : AVC
Duration : 2 h 49 min
Bit rate mode : Variable
Bit rate : 1 104 kb/s
Maximum bit rate : 4 000 kb/s
Width : 960 pixels
Height : 540 pixels
Display aspect ratio : 16:9
Frame rate mode : Constant
Frame rate : 29.970 (30000/1001) FPS
Color space : YUV
Chroma subsampling : 4:2:0
Bit depth : 8 bits
Scan type : Progressive
Bits/(Pixel*Frame) : 0.071
Stream size : 1.31 GiB (90%)
Default : Yes
Forced : No
Color range : Limited
Color primaries : BT.709
Transfer characteristics : BT.709
Matrix coefficients : BT.709

Audio
ID : 2
Format : AAC LC
Codec ID : A_AAC-2
Duration : 2 h 49 min
Bit rate : 125 kb/s
Channel(s) : 2 channels
Channel layout : L R
Sampling rate : 48.0 kHz
Frame rate : 46.875 FPS (1024 SPF)
Compression mode : Lossy
Delay relative to video : 20 ms
Stream size : 152 MiB (10%)
Default : Yes
Forced : No

DDT Beer Garden Like Wrestling 2021

Complete name : DDT.2021.08.01.Beer.Garden-Like.Wrestling.2021.Day.3.720p.WEB.h264-LATE.mkv
Format : Matroska
Format version : Version 4
File size : 3.14 GiB
Duration : 2 h 49 min
Overall bit rate mode : Variable
Overall bit rate : 2 651 kb/s

Video
ID : 1
Format : AVC
Format/Info : Advanced Video
Duration : 2 h 49 min
Bit rate mode : Variable
Bit rate : 2 459 kb/s
Maximum bit rate : 8 000 kb/s
Width : 1 280 pixels
Height : 720 pixels
Display aspect ratio : 16:9
Frame rate mode : Constant
Frame rate : 29.970 (30000/1001) FPS
Color space : YUV
Chroma subsampling : 4:2:0
Bit depth : 8 bits
Scan type : Progressive
Bits/(Pixel*Frame) : 0.089
Stream size : 2.92 GiB (93%)
Default : Yes
Forced : No
Color range : Limited
Color primaries : BT.709
Transfer characteristics : BT.709
Matrix coefficients : BT.709

DDT Beer Garden Like Wrestling 2021

Audio
ID : 2
Format : AAC LC
Format/Info : Advanced Audio
Codec ID : A_AAC-2
Duration : 2 h 49 min
Bit rate : 192 kb/s
Channel(s) : 2 channels
Channel layout : L R
Sampling rate : 48.0 kHz
Frame rate : 46.875 FPS (1024 SPF)
Compression mode : Lossy
Delay relative to video : 20 ms
Stream size : 230 MiB (7%)
Default : Yes
Forced : No

Complete name : DDT.2021.08.01.Beer.Garden-Like.Wrestling.2021.Day.3.1080p.WEB.h264-LATE.mkv
Format : Matroska
Format version : Version 4
File size : 7.78 GiB
Duration : 2 h 49 min
Overall bit rate mode : Variable
Overall bit rate : 6 564 kb/s

DDT Beer Garden Like Wrestling 2021

Video
ID : 1
Format : AVC
Format/Info : Advanced Video
Duration : 2 h 49 min
Bit rate mode : Variable
Bit rate : 6 180 kb/s
Maximum bit rate : 18.0 Mb/s
Width : 1 920 pixels
Height : 1 080 pixels
Display aspect ratio : 16:9
Frame rate mode : Constant
Frame rate : 29.970 (30000/1001) FPS
Color space : YUV
Chroma subsampling : 4:2:0
Bit depth : 8 bits
Scan type : Progressive
Bits/(Pixel*Frame) : 0.099
Stream size : 7.33 GiB (94%)
Default : Yes
Forced : No
Color range : Limited
Color primaries : BT.709
Transfer characteristics : BT.709
Matrix coefficients : BT.709

DDT Beer Garden Like Wrestling 2021

Audio
ID : 2
Format : AAC LC
Format/Info : Advanced Audio
Codec ID : A_AAC-2
Duration : 2 h 49 min
Bit rate : 384 kb/s
Channel(s) : 2 channels
Channel layout : L R
Sampling rate : 48.0 kHz
Frame rate : 46.875 FPS (1024 SPF)
Compression mode : Lossy
Delay relative to video : 20 ms
Stream size : 463 MiB (6%)
Default : Yes
Forced : No

Complete name : DDT.2021.08.01.Beer.Garden-Like.Wrestling.2021.Day.3.WEB.h264-LATE.mkv
Format : Matroska
Format version : Version 4
File size : 1.46 GiB
Duration : 2 h 49 min
Overall bit rate mode : Variable
Overall bit rate : 1 232 kb/s

DDT Beer Garden Like Wrestling 2021

Video
ID : 1
Format : AVC
Duration : 2 h 49 min
Bit rate mode : Variable
Bit rate : 1 104 kb/s
Maximum bit rate : 4 000 kb/s
Width : 960 pixels
Height : 540 pixels
Display aspect ratio : 16:9
Frame rate mode : Constant
Frame rate : 29.970 (30000/1001) FPS
Color space : YUV
Chroma subsampling : 4:2:0
Bit depth : 8 bits
Scan type : Progressive
Bits/(Pixel*Frame) : 0.071
Stream size : 1.31 GiB (90%)
Default : Yes
Forced : No
Color range : Limited
Color primaries : BT.709
Transfer characteristics : BT.709
Matrix coefficients : BT.709

Audio
ID : 2
Format : AAC LC
Codec ID : A_AAC-2
Duration : 2 h 49 min
Bit rate : 125 kb/s
Channel(s) : 2 channels
Channel layout : L R
Sampling rate : 48.0 kHz
Frame rate : 46.875 FPS (1024 SPF)
Compression mode : Lossy
Delay relative to video : 20 ms
Stream size : 152 MiB (10%)
Default : Yes
Forced : No

DDT Beer Garden Like Wrestling 2021

Complete name : DDT.2021.08.01.Beer.Garden-Like.Wrestling.2021.Day.3.720p.WEB.h264-LATE.mkv
Format : Matroska
Format version : Version 4
File size : 3.14 GiB
Duration : 2 h 49 min
Overall bit rate mode : Variable
Overall bit rate : 2 651 kb/s

Video
ID : 1
Format : AVC
Format/Info : Advanced Video
Duration : 2 h 49 min
Bit rate mode : Variable
Bit rate : 2 459 kb/s
Maximum bit rate : 8 000 kb/s
Width : 1 280 pixels
Height : 720 pixels
Display aspect ratio : 16:9
Frame rate mode : Constant
Frame rate : 29.970 (30000/1001) FPS
Color space : YUV
Chroma subsampling : 4:2:0
Bit depth : 8 bits
Scan type : Progressive
Bits/(Pixel*Frame) : 0.089
Stream size : 2.92 GiB (93%)
Default : Yes
Forced : No
Color range : Limited
Color primaries : BT.709
Transfer characteristics : BT.709
Matrix coefficients : BT.709

DDT Beer Garden Like Wrestling 2021

Audio
ID : 2
Format : AAC LC
Format/Info : Advanced Audio
Codec ID : A_AAC-2
Duration : 2 h 49 min
Bit rate : 192 kb/s
Channel(s) : 2 channels
Channel layout : L R
Sampling rate : 48.0 kHz
Frame rate : 46.875 FPS (1024 SPF)
Compression mode : Lossy
Delay relative to video : 20 ms
Stream size : 230 MiB (7%)
Default : Yes
Forced : No

Complete name : DDT.2021.08.01.Beer.Garden-Like.Wrestling.2021.Day.3.1080p.WEB.h264-LATE.mkv
Format : Matroska
Format version : Version 4
File size : 7.78 GiB
Duration : 2 h 49 min
Overall bit rate mode : Variable
Overall bit rate : 6 564 kb/s

DDT Beer Garden Like Wrestling 2021

Video
ID : 1
Format : AVC
Format/Info : Advanced Video
Duration : 2 h 49 min
Bit rate mode : Variable
Bit rate : 6 180 kb/s
Maximum bit rate : 18.0 Mb/s
Width : 1 920 pixels
Height : 1 080 pixels
Display aspect ratio : 16:9
Frame rate mode : Constant
Frame rate : 29.970 (30000/1001) FPS
Color space : YUV
Chroma subsampling : 4:2:0
Bit depth : 8 bits
Scan type : Progressive
Bits/(Pixel*Frame) : 0.099
Stream size : 7.33 GiB (94%)
Default : Yes
Forced : No
Color range : Limited
Color primaries : BT.709
Transfer characteristics : BT.709
Matrix coefficients : BT.709

DDT Beer Garden Like Wrestling 2021

Audio
ID : 2
Format : AAC LC
Format/Info : Advanced Audio
Codec ID : A_AAC-2
Duration : 2 h 49 min
Bit rate : 384 kb/s
Channel(s) : 2 channels
Channel layout : L R
Sampling rate : 48.0 kHz
Frame rate : 46.875 FPS (1024 SPF)
Compression mode : Lossy
Delay relative to video : 20 ms
Stream size : 463 MiB (6%)
Default : Yes
Forced : No

Complete name : DDT.2021.08.01.Beer.Garden-Like.Wrestling.2021.Day.3.WEB.h264-LATE.mkv
Format : Matroska
Format version : Version 4
File size : 1.46 GiB
Duration : 2 h 49 min
Overall bit rate mode : Variable
Overall bit rate : 1 232 kb/s

DDT Beer Garden Like Wrestling 2021

Video
ID : 1
Format : AVC
Duration : 2 h 49 min
Bit rate mode : Variable
Bit rate : 1 104 kb/s
Maximum bit rate : 4 000 kb/s
Width : 960 pixels
Height : 540 pixels
Display aspect ratio : 16:9
Frame rate mode : Constant
Frame rate : 29.970 (30000/1001) FPS
Color space : YUV
Chroma subsampling : 4:2:0
Bit depth : 8 bits
Scan type : Progressive
Bits/(Pixel*Frame) : 0.071
Stream size : 1.31 GiB (90%)
Default : Yes
Forced : No
Color range : Limited
Color primaries : BT.709
Transfer characteristics : BT.709
Matrix coefficients : BT.709

Audio
ID : 2
Format : AAC LC
Codec ID : A_AAC-2
Duration : 2 h 49 min
Bit rate : 125 kb/s
Channel(s) : 2 channels
Channel layout : L R
Sampling rate : 48.0 kHz
Frame rate : 46.875 FPS (1024 SPF)
Compression mode : Lossy
Delay relative to video : 20 ms
Stream size : 152 MiB (10%)
Default : Yes
Forced : No

DDT Beer Garden Like Wrestling 2021

Complete name : DDT.2021.08.01.Beer.Garden-Like.Wrestling.2021.Day.3.720p.WEB.h264-LATE.mkv
Format : Matroska
Format version : Version 4
File size : 3.14 GiB
Duration : 2 h 49 min
Overall bit rate mode : Variable
Overall bit rate : 2 651 kb/s

Video
ID : 1
Format : AVC
Format/Info : Advanced Video
Duration : 2 h 49 min
Bit rate mode : Variable
Bit rate : 2 459 kb/s
Maximum bit rate : 8 000 kb/s
Width : 1 280 pixels
Height : 720 pixels
Display aspect ratio : 16:9
Frame rate mode : Constant
Frame rate : 29.970 (30000/1001) FPS
Color space : YUV
Chroma subsampling : 4:2:0
Bit depth : 8 bits
Scan type : Progressive
Bits/(Pixel*Frame) : 0.089
Stream size : 2.92 GiB (93%)
Default : Yes
Forced : No
Color range : Limited
Color primaries : BT.709
Transfer characteristics : BT.709
Matrix coefficients : BT.709

DDT Beer Garden Like Wrestling 2021

Audio
ID : 2
Format : AAC LC
Format/Info : Advanced Audio
Codec ID : A_AAC-2
Duration : 2 h 49 min
Bit rate : 192 kb/s
Channel(s) : 2 channels
Channel layout : L R
Sampling rate : 48.0 kHz
Frame rate : 46.875 FPS (1024 SPF)
Compression mode : Lossy
Delay relative to video : 20 ms
Stream size : 230 MiB (7%)
Default : Yes
Forced : No

Complete name : DDT.2021.08.01.Beer.Garden-Like.Wrestling.2021.Day.3.1080p.WEB.h264-LATE.mkv
Format : Matroska
Format version : Version 4
File size : 7.78 GiB
Duration : 2 h 49 min
Overall bit rate mode : Variable
Overall bit rate : 6 564 kb/s

DDT Beer Garden Like Wrestling 2021

Video
ID : 1
Format : AVC
Format/Info : Advanced Video
Duration : 2 h 49 min
Bit rate mode : Variable
Bit rate : 6 180 kb/s
Maximum bit rate : 18.0 Mb/s
Width : 1 920 pixels
Height : 1 080 pixels
Display aspect ratio : 16:9
Frame rate mode : Constant
Frame rate : 29.970 (30000/1001) FPS
Color space : YUV
Chroma subsampling : 4:2:0
Bit depth : 8 bits
Scan type : Progressive
Bits/(Pixel*Frame) : 0.099
Stream size : 7.33 GiB (94%)
Default : Yes
Forced : No
Color range : Limited
Color primaries : BT.709
Transfer characteristics : BT.709
Matrix coefficients : BT.709

DDT Beer Garden Like Wrestling 2021

Audio
ID : 2
Format : AAC LC
Format/Info : Advanced Audio
Codec ID : A_AAC-2
Duration : 2 h 49 min
Bit rate : 384 kb/s
Channel(s) : 2 channels
Channel layout : L R
Sampling rate : 48.0 kHz
Frame rate : 46.875 FPS (1024 SPF)
Compression mode : Lossy
Delay relative to video : 20 ms
Stream size : 463 MiB (6%)
Default : Yes
Forced : No

Complete name : DDT.2021.08.01.Beer.Garden-Like.Wrestling.2021.Day.3.WEB.h264-LATE.mkv
Format : Matroska
Format version : Version 4
File size : 1.46 GiB
Duration : 2 h 49 min
Overall bit rate mode : Variable
Overall bit rate : 1 232 kb/s

DDT Beer Garden Like Wrestling 2021

Video
ID : 1
Format : AVC
Duration : 2 h 49 min
Bit rate mode : Variable
Bit rate : 1 104 kb/s
Maximum bit rate : 4 000 kb/s
Width : 960 pixels
Height : 540 pixels
Display aspect ratio : 16:9
Frame rate mode : Constant
Frame rate : 29.970 (30000/1001) FPS
Color space : YUV
Chroma subsampling : 4:2:0
Bit depth : 8 bits
Scan type : Progressive
Bits/(Pixel*Frame) : 0.071
Stream size : 1.31 GiB (90%)
Default : Yes
Forced : No
Color range : Limited
Color primaries : BT.709
Transfer characteristics : BT.709
Matrix coefficients : BT.709

Audio
ID : 2
Format : AAC LC
Codec ID : A_AAC-2
Duration : 2 h 49 min
Bit rate : 125 kb/s
Channel(s) : 2 channels
Channel layout : L R
Sampling rate : 48.0 kHz
Frame rate : 46.875 FPS (1024 SPF)
Compression mode : Lossy
Delay relative to video : 20 ms
Stream size : 152 MiB (10%)
Default : Yes
Forced : No

DDT Beer Garden Like Wrestling 2021

Complete name : DDT.2021.08.01.Beer.Garden-Like.Wrestling.2021.Day.3.720p.WEB.h264-LATE.mkv
Format : Matroska
Format version : Version 4
File size : 3.14 GiB
Duration : 2 h 49 min
Overall bit rate mode : Variable
Overall bit rate : 2 651 kb/s

Video
ID : 1
Format : AVC
Format/Info : Advanced Video
Duration : 2 h 49 min
Bit rate mode : Variable
Bit rate : 2 459 kb/s
Maximum bit rate : 8 000 kb/s
Width : 1 280 pixels
Height : 720 pixels
Display aspect ratio : 16:9
Frame rate mode : Constant
Frame rate : 29.970 (30000/1001) FPS
Color space : YUV
Chroma subsampling : 4:2:0
Bit depth : 8 bits
Scan type : Progressive
Bits/(Pixel*Frame) : 0.089
Stream size : 2.92 GiB (93%)
Default : Yes
Forced : No
Color range : Limited
Color primaries : BT.709
Transfer characteristics : BT.709
Matrix coefficients : BT.709

DDT Beer Garden Like Wrestling 2021

Audio
ID : 2
Format : AAC LC
Format/Info : Advanced Audio
Codec ID : A_AAC-2
Duration : 2 h 49 min
Bit rate : 192 kb/s
Channel(s) : 2 channels
Channel layout : L R
Sampling rate : 48.0 kHz
Frame rate : 46.875 FPS (1024 SPF)
Compression mode : Lossy
Delay relative to video : 20 ms
Stream size : 230 MiB (7%)
Default : Yes
Forced : No

Complete name : DDT.2021.08.01.Beer.Garden-Like.Wrestling.2021.Day.3.1080p.WEB.h264-LATE.mkv
Format : Matroska
Format version : Version 4
File size : 7.78 GiB
Duration : 2 h 49 min
Overall bit rate mode : Variable
Overall bit rate : 6 564 kb/s

DDT Beer Garden Like Wrestling 2021

Video
ID : 1
Format : AVC
Format/Info : Advanced Video
Duration : 2 h 49 min
Bit rate mode : Variable
Bit rate : 6 180 kb/s
Maximum bit rate : 18.0 Mb/s
Width : 1 920 pixels
Height : 1 080 pixels
Display aspect ratio : 16:9
Frame rate mode : Constant
Frame rate : 29.970 (30000/1001) FPS
Color space : YUV
Chroma subsampling : 4:2:0
Bit depth : 8 bits
Scan type : Progressive
Bits/(Pixel*Frame) : 0.099
Stream size : 7.33 GiB (94%)
Default : Yes
Forced : No
Color range : Limited
Color primaries : BT.709
Transfer characteristics : BT.709
Matrix coefficients : BT.709

DDT Beer Garden Like Wrestling 2021

Audio
ID : 2
Format : AAC LC
Format/Info : Advanced Audio
Codec ID : A_AAC-2
Duration : 2 h 49 min
Bit rate : 384 kb/s
Channel(s) : 2 channels
Channel layout : L R
Sampling rate : 48.0 kHz
Frame rate : 46.875 FPS (1024 SPF)
Compression mode : Lossy
Delay relative to video : 20 ms
Stream size : 463 MiB (6%)
Default : Yes
Forced : No

Complete name : DDT.2021.08.01.Beer.Garden-Like.Wrestling.2021.Day.3.WEB.h264-LATE.mkv
Format : Matroska
Format version : Version 4
File size : 1.46 GiB
Duration : 2 h 49 min
Overall bit rate mode : Variable
Overall bit rate : 1 232 kb/s

DDT Beer Garden Like Wrestling 2021

Video
ID : 1
Format : AVC
Duration : 2 h 49 min
Bit rate mode : Variable
Bit rate : 1 104 kb/s
Maximum bit rate : 4 000 kb/s
Width : 960 pixels
Height : 540 pixels
Display aspect ratio : 16:9
Frame rate mode : Constant
Frame rate : 29.970 (30000/1001) FPS
Color space : YUV
Chroma subsampling : 4:2:0
Bit depth : 8 bits
Scan type : Progressive
Bits/(Pixel*Frame) : 0.071
Stream size : 1.31 GiB (90%)
Default : Yes
Forced : No
Color range : Limited
Color primaries : BT.709
Transfer characteristics : BT.709
Matrix coefficients : BT.709

Audio
ID : 2
Format : AAC LC
Codec ID : A_AAC-2
Duration : 2 h 49 min
Bit rate : 125 kb/s
Channel(s) : 2 channels
Channel layout : L R
Sampling rate : 48.0 kHz
Frame rate : 46.875 FPS (1024 SPF)
Compression mode : Lossy
Delay relative to video : 20 ms
Stream size : 152 MiB (10%)
Default : Yes
Forced : No

DDT Beer Garden Like Wrestling 2021

Complete name : DDT.2021.08.01.Beer.Garden-Like.Wrestling.2021.Day.3.720p.WEB.h264-LATE.mkv
Format : Matroska
Format version : Version 4
File size : 3.14 GiB
Duration : 2 h 49 min
Overall bit rate mode : Variable
Overall bit rate : 2 651 kb/s

Video
ID : 1
Format : AVC
Format/Info : Advanced Video
Duration : 2 h 49 min
Bit rate mode : Variable
Bit rate : 2 459 kb/s
Maximum bit rate : 8 000 kb/s
Width : 1 280 pixels
Height : 720 pixels
Display aspect ratio : 16:9
Frame rate mode : Constant
Frame rate : 29.970 (30000/1001) FPS
Color space : YUV
Chroma subsampling : 4:2:0
Bit depth : 8 bits
Scan type : Progressive
Bits/(Pixel*Frame) : 0.089
Stream size : 2.92 GiB (93%)
Default : Yes
Forced : No
Color range : Limited
Color primaries : BT.709
Transfer characteristics : BT.709
Matrix coefficients : BT.709

DDT Beer Garden Like Wrestling 2021

Audio
ID : 2
Format : AAC LC
Format/Info : Advanced Audio
Codec ID : A_AAC-2
Duration : 2 h 49 min
Bit rate : 192 kb/s
Channel(s) : 2 channels
Channel layout : L R
Sampling rate : 48.0 kHz
Frame rate : 46.875 FPS (1024 SPF)
Compression mode : Lossy
Delay relative to video : 20 ms
Stream size : 230 MiB (7%)
Default : Yes
Forced : No

Complete name : DDT.2021.08.01.Beer.Garden-Like.Wrestling.2021.Day.3.1080p.WEB.h264-LATE.mkv
Format : Matroska
Format version : Version 4
File size : 7.78 GiB
Duration : 2 h 49 min
Overall bit rate mode : Variable
Overall bit rate : 6 564 kb/s

DDT Beer Garden Like Wrestling 2021

Video
ID : 1
Format : AVC
Format/Info : Advanced Video
Duration : 2 h 49 min
Bit rate mode : Variable
Bit rate : 6 180 kb/s
Maximum bit rate : 18.0 Mb/s
Width : 1 920 pixels
Height : 1 080 pixels
Display aspect ratio : 16:9
Frame rate mode : Constant
Frame rate : 29.970 (30000/1001) FPS
Color space : YUV
Chroma subsampling : 4:2:0
Bit depth : 8 bits
Scan type : Progressive
Bits/(Pixel*Frame) : 0.099
Stream size : 7.33 GiB (94%)
Default : Yes
Forced : No
Color range : Limited
Color primaries : BT.709
Transfer characteristics : BT.709
Matrix coefficients : BT.709

DDT Beer Garden Like Wrestling 2021

Audio
ID : 2
Format : AAC LC
Format/Info : Advanced Audio
Codec ID : A_AAC-2
Duration : 2 h 49 min
Bit rate : 384 kb/s
Channel(s) : 2 channels
Channel layout : L R
Sampling rate : 48.0 kHz
Frame rate : 46.875 FPS (1024 SPF)
Compression mode : Lossy
Delay relative to video : 20 ms
Stream size : 463 MiB (6%)
Default : Yes
Forced : No

Complete name : DDT.2021.08.01.Beer.Garden-Like.Wrestling.2021.Day.3.WEB.h264-LATE.mkv
Format : Matroska
Format version : Version 4
File size : 1.46 GiB
Duration : 2 h 49 min
Overall bit rate mode : Variable
Overall bit rate : 1 232 kb/s

DDT Beer Garden Like Wrestling 2021

Video
ID : 1
Format : AVC
Duration : 2 h 49 min
Bit rate mode : Variable
Bit rate : 1 104 kb/s
Maximum bit rate : 4 000 kb/s
Width : 960 pixels
Height : 540 pixels
Display aspect ratio : 16:9
Frame rate mode : Constant
Frame rate : 29.970 (30000/1001) FPS
Color space : YUV
Chroma subsampling : 4:2:0
Bit depth : 8 bits
Scan type : Progressive
Bits/(Pixel*Frame) : 0.071
Stream size : 1.31 GiB (90%)
Default : Yes
Forced : No
Color range : Limited
Color primaries : BT.709
Transfer characteristics : BT.709
Matrix coefficients : BT.709

Audio
ID : 2
Format : AAC LC
Codec ID : A_AAC-2
Duration : 2 h 49 min
Bit rate : 125 kb/s
Channel(s) : 2 channels
Channel layout : L R
Sampling rate : 48.0 kHz
Frame rate : 46.875 FPS (1024 SPF)
Compression mode : Lossy
Delay relative to video : 20 ms
Stream size : 152 MiB (10%)
Default : Yes
Forced : No

DDT Beer Garden Like Wrestling 2021

 

[collapse]

 

 

https://dx-tv.com/

Leave a Reply

Your email address will not be published. Required fields are marked *

This site uses Akismet to reduce spam. Learn how your comment data is processed.