DDT Bakuha Koshien 2021 05 02 Spring

DDT Bakuha Koshien 2021 05 02 Spring DX-TV

DDT Bakuha Koshien 2021

 DDT Bakuha Koshien 2021

 

 

 

Download Links with High Speed


 

Dopapk

 

 

Show Links

 

http://shrt10.com/OIafDK0B

 

[collapse]

 

 

Nitroflare

 

 

Show Links

 

http://shrt10.com/RJXAh

 

[collapse]

 

 

Rapidgator

 

 

Show Links

 

http://shrt10.com/m99xn

 

[collapse]

 

 

Uploaded

 

 

Show Links

 

http://shrt10.com/tyFySWwYg

 

[collapse]

 

 

Watch online

 

Server 1

 

 

 

 

DDT Bakuha Koshien 2021

 

 

 

 

Server-2

 

 

 

 

watch now

 

 

 

|Server-3

 

 

 

 

watch now

 

 

Uploaded By Site DX-TV.com

 

 

Show Info This Show

 

 

Complete name : DDT.2021.05.02.Bakuha.Koshien.2021.Spring.WEB.h264-LATE.mkv
Format : Matroska
Format version : Version 4
File size : 1.40 GiB
Duration : 1 h 49 min
Overall bit rate : 1 832 kb/s

DDT Bakuha Koshien 2021

Video
ID : 1
Format : AVC
Format/Info : Advanced Video
Duration : 1 h 49 min
Bit rate : 1 733 kb/s
Width : 960 pixels
Height : 540 pixels
Display aspect ratio : 16:9
Frame rate mode : Constant
Frame rate : 30.000 FPS
Color space : YUV
Chroma subsampling : 4:2:0
Bit depth : 8 bits
Scan type : Progressive
Bits/(Pixel*Frame) : 0.111
Stream size : 1.32 GiB (95%)
Default : Yes
Forced : No
Color range : Limited
Color primaries : BT.601 PAL
Transfer characteristics : BT.601
Matrix coefficients : BT.470 System B/G

Audio
ID : 2
Format : AAC LC
Format/Info : Advanced Audio
Codec ID : A_AAC-2
Duration : 1 h 49 min
Bit rate : 96.0 kb/s
Channel(s) : 2 channels
Channel layout : L R
Sampling rate : 44.1 kHz
Frame rate : 43.066 FPS (1024 SPF)
Compression mode : Lossy
Stream size : 74.9 MiB (5%)
Language : English
Default : Yes
Forced : No

DDT Bakuha Koshien

Audio
ID : 2
Format : AAC LC
Format/Info : Advanced Audio
Codec ID : A_AAC-2
Duration : 1 h 49 min
Bit rate : 96.0 kb/s
Channel(s) : 2 channels
Channel layout : L R
Sampling rate : 44.1 kHz
Frame rate : 43.066 FPS (1024 SPF)
Compression mode : Lossy
Stream size : 74.9 MiB (5%)
Language : English
Default : Yes
Forced : No

 

Audio
ID : 2
Format : AAC LC
Format/Info : Advanced Audio
Codec ID : A_AAC-2
Duration : 1 h 49 min
Bit rate : 96.0 kb/s
Channel(s) : 2 channels
Channel layout : L R
Sampling rate : 44.1 kHz
Frame rate : 43.066 FPS (1024 SPF)
Compression mode : Lossy
Stream size : 74.9 MiB (5%)
Language : English
Default : Yes
Forced : No

DDT Bakuha Koshien

Audio
ID : 2
Format : AAC LC
Format/Info : Advanced Audio
Codec ID : A_AAC-2
Duration : 1 h 49 min
Bit rate : 96.0 kb/s
Channel(s) : 2 channels
Channel layout : L R
Sampling rate : 44.1 kHz
Frame rate : 43.066 FPS (1024 SPF)
Compression mode : Lossy
Stream size : 74.9 MiB (5%)
Language : English
Default : Yes
Forced : No

DDT Bakuha Koshien

Audio
ID : 2
Format : AAC LC
Format/Info : Advanced Audio
Codec ID : A_AAC-2
Duration : 1 h 49 min
Bit rate : 96.0 kb/s
Channel(s) : 2 channels
Channel layout : L R
Sampling rate : 44.1 kHz
Frame rate : 43.066 FPS (1024 SPF)
Compression mode : Lossy
Stream size : 74.9 MiB (5%)
Language : English
Default : Yes
Forced : No

DDT Bakuha Koshien

 

 

[collapse]

 

 

https://dx-tv.com/