DDT Audience 2018 05 20 Tokyo Korakuen Hall Samurai TV Watch / Download

DDT Audience 2018 05 20 Tokyo Korakuen Hall Samurai TV Watch / Download

 

 

 

 


 

 

dx-tv.com

 

 

 

 
Complete name : 2018.05.20.DDT.Audience.2018.Tokyo.Korakuen.Hall Samurai.TV.mp4
Format : MPEG-4
Format profile : Base Media
Codec ID : isom
File size : 2.73 GiB
Duration : 2h 19mn
Overall bit rate : 2 798 Kbps

Video
ID : 1
Format : AVC
Format/Info : Advanced Video Codec

Codec ID : avc1
Codec ID/Info : Advanced Video Coding
Duration : 2h 19mn
Duration_LastFrame : -23ms
Bit rate mode : Variable
Bit rate : 2 657 Kbps
Width : 1 280 pixels
Height : 720 pixels
Display aspect ratio : 16:9
Frame rate mode : Constant
Frame rate : 60.000 fps
Color space : YUV
Chroma subsampling : 4:2:0
Bit depth : 8 bits
Scan type : Progressive
Bits/(Pixel*Frame) : 0.048
Stream size : 2.60 GiB (95%)
Writing library : x264 core 148 r2762 90a61ec

Audio
ID : 2
Format : AAC
Format/Info : Advanced Audio Codec
Format profile : LC
Codec ID : 40
Duration : 2h 19mn
Bit rate mode : Constant
Bit rate : 128 Kbps
Channel(s) : 2 channels
Channel positions : Front: L R
Sampling rate : 44.1 KHz
Compression mode : Lossy
Stream size : 128 MiB (5%)

 

 

 

 

 

 

DDT Audience 2018 05 20 Tokyo Korakuen Hall Samurai TV Watch / Download

 

 

 

 

Watch online

 

 

Waiting finish converting video

 

 

Server 1

 

 

 

 

 

 

 

 

 

 

 

 

 

 

 

 

 

Server 2

 

 

 

 

 

 

 


 

 

 

 

 

 

Uploaded By Site DX-TV.com

 

 

 

open rar file to see this password

 

 

 

 

The password is : DX-TV.com

 

 

 

 

 

 

 

Uploaded.net + rapidgator.net

 

 

 

 

 

 
http://shrt10.com/IaFvnXfy

 
http://shrt10.com/0lVw

 

 

 

 

 

 

 

DDT Audience 2018 05 20 Tokyo Korakuen Hall Samurai TV Watch / Download