DDT April Fool 2021 04 11 Japan DX-TV

DDT April Fool 2021 04 11 Japan DX-TV

DDT April Fool 2021

 DDT April Fool 2021

 

 

 

Download Links with High Speed


 

Dopapk

 

 

Show Links

 

http://shrt10.com/EdoleD

 

[collapse]

 

 

Nitroflare

 

 

Show Links

 

http://shrt10.com/aevKg

 

[collapse]

 

 

Rapidgator

 

 

Show Links

 

http://shrt10.com/ccd6HPvI

 

[collapse]

 

 

Uploaded

 

 

Show Links

 

http://shrt10.com/LSi2QhEo

 

[collapse]

 

 

Watch online

 

Server 1

 

 

 

 

DDT April Fool

 

 

 

 

Server-2

 

 

 

 

watch now

 

 

 

|Server-3

 

 

 

 

watch now

 

 

Uploaded By Site DX-TV.com

 

 

Show Info This Show

 

 

Complete name : DDT.2021.04.11.April.Fool.2021.JAPANESE.WEB.h264-LATE.mkv
Format : Matroska
Format version : Version 4
File size : 2.37 GiB
Duration : 3 h 1 min
Overall bit rate : 1 871 kb/s

DDT April Fool

Video
ID : 1
Format : AVC
Duration : 3 h 1 min
Bit rate : 1 772 kb/s
Width : 960 pixels
Height : 540 pixels
Display aspect ratio : 16:9
Frame rate mode : Constant
Frame rate : 30.000 FPS
Color space : YUV
Chroma subsampling : 4:2:0
Bit depth : 8 bits
Scan type : Progressive
Bits/(Pixel*Frame) : 0.114
Stream size : 2.24 GiB (95%)
Default : Yes
Forced : No
Color range : Limited
Color primaries : BT.601 PAL
Transfer characteristics : BT.601
Matrix coefficients : BT.470 System B/G

DDT April Fool

Audio
ID : 2
Format : AAC LC
Codec ID : A_AAC-2
Duration : 3 h 1 min
Bit rate : 96.0 kb/s
Channel(s) : 2 channels
Channel layout : L R
Sampling rate : 44.1 kHz
Frame rate : 43.066 FPS (1024 SPF)
Compression mode : Lossy
Stream size : 124 MiB (5%)
Language : English
Default : Yes
Forced : No

Audio
ID : 2
Format : AAC LC
Codec ID : A_AAC-2
Duration : 3 h 1 min
Bit rate : 96.0 kb/s
Channel(s) : 2 channels
Channel layout : L R
Sampling rate : 44.1 kHz
Frame rate : 43.066 FPS (1024 SPF)
Compression mode : Lossy
Stream size : 124 MiB (5%)
Language : English
Default : Yes
Forced : No

DDT April Fool

Audio
ID : 2
Format : AAC LC
Codec ID : A_AAC-2
Duration : 3 h 1 min
Bit rate : 96.0 kb/s
Channel(s) : 2 channels
Channel layout : L R
Sampling rate : 44.1 kHz
Frame rate : 43.066 FPS (1024 SPF)
Compression mode : Lossy
Stream size : 124 MiB (5%)
Language : English
Default : Yes
Forced : No

Audio
ID : 2
Format : AAC LC
Codec ID : A_AAC-2
Duration : 3 h 1 min
Bit rate : 96.0 kb/s
Channel(s) : 2 channels
Channel layout : L R
Sampling rate : 44.1 kHz
Frame rate : 43.066 FPS (1024 SPF)
Compression mode : Lossy
Stream size : 124 MiB (5%)
Language : English
Default : Yes
Forced : No

DDT April Fool

Audio
ID : 2
Format : AAC LC
Codec ID : A_AAC-2
Duration : 3 h 1 min
Bit rate : 96.0 kb/s
Channel(s) : 2 channels
Channel layout : L R
Sampling rate : 44.1 kHz
Frame rate : 43.066 FPS (1024 SPF)
Compression mode : Lossy
Stream size : 124 MiB (5%)
Language : English
Default : Yes
Forced : No

DDT April Fool

[collapse]

 

 

https://dx-tv.com/