DDT 23 May 2020 Free Online Full Show

Watch DDT 2020 05 23 DDT TV Show 4 DX-TV

 

DDT

 DDT
 

DDT 23 May 2020 Free Online Full Show

 

 

Complete name : DDT.2020.05.23.DDT.TV.Show.4.JAPANESE.WEB.h264-LATE.mkv
Format : Matroska
Format version : Version 4
File size : 1.96 GiB
Duration : 2 h 28 min
Overall bit rate : 1 898 kb/s

Video
ID : 1
Format : AVC
Codec ID : DDT
Duration : 2 h 28 min
Bit rate : 1 800 kb/s
Width : 960 pixels
Height : 540 pixels
Display aspect ratio : 16:9
Frame rate mode : Constant
Frame rate : 30.000 FPS
Color space : YUV
Chroma subsampling : 4:2:0
Bit depth : 8 bits
Scan type : DDT
Bits/(Pixel*Frame) : 0.116
Stream size : 1.86 GiB (95%)
Default : Yes
Forced : No
Color range : Limited
Color primaries : BT.601 PAL
Transfer characteristics : BT.601
Matrix coefficients : DDT

 

DDT 23 May 2020 Free

Audio
ID : 2
Format : AAC LC
Format/Info : DDT
Codec ID : A_AAC-2
Duration : 2 h 28 min
Bit rate : 96.0 kb/s
Channel(s) : 2 channels
Channel layout : L R
Sampling rate : 44.1 kHz
Frame rate : 43.066 FPS (1024 SPF)
Compression mode : Lossy
Stream size : 102 MiB (5%)
Language : English
Default : Yes
Forced : DDT

 

 

 

Watch online

 

 

Server 1

 

 

 

 

watch now

 

 

 

 

Server 2

 

 

 

watch now

 

 

 

DDT 23 May 2020 Free Online Full Show

 

 

Uploaded By Site DX-TV.com

 

 

 

Download with premium account LinksĀ 

 

 

Keep2Share

 

 

nitroflare.com

 

 

rapidgator.net

 

 

uploadgig.com

 

 

 

dx-tv.com

 

urlfree.net

Leave a Reply

Your email address will not be published. Required fields are marked *

This site uses Akismet to reduce spam. Learn how your comment data is processed.