DDT 2020 06 27 TV Show 8 Full Show Online

Watch DDT 2020 06 27 DDT TV Show 8 DX-TV

 

DDT

 DDT
 

DDT 2020 06 27 TV Show 8 Full Show Online

 

 

 

Complete name : DDT.2020.06.27.DDT.TV.Show.8.JAPANESE.WEB.h264-LATE.mkv
Format : Matroska
Format version : Version 4
File size : 2.37 GiB
Duration : 3 h 0 min
DDT bit rate : 1 882 kb/s

 2020 06 27 TV Show 8 Full Show Online

Video
ID : 1
Format : AVC
Format/Info : Advanced Video Codec
DDT profile : [email protected]
Format settings : CABAC / 4 Ref Frames
DDT settings, CABAC : Yes
Format settings, : 4 frames
Codec ID : V_MPEG4/ISO/AVC
Duration : 3 h 0 min
Bit rate : 1 784 kb/s
Width : 960 pixels
Height : 540 pixels
DDT ratio : 16:9
Frame rate mode : Constant
Frame rate : 30.000 FPS
Color space : YUV
Chroma subsampling : 4:2:0
Bit depth : 8 bits
Scan type : Progressive
Bits/(Pixel*Frame) : 0.115
Stream size : 2.24 GiB (95%)
Default : Yes
Forced : No
Color range : Limited
Color primaries : BT.601 PAL
Transfer characteristics : BT.601
Matrix coefficients : BT.470 System B/G

 2020 06 27 TV Show 8 Full Show Online

Audio
ID : 2
Format : AAC LC
DDT /Info : DDT Low Complexity
Codec ID : A_AAC-2
Duration : 3 h 0 min
Bit rate : 96.0 kb/s
Channel(s) : 2 channels
Channel layout : L R
Sampling rate : 44.1 kHz
Frame rate : 43.066 FPS (1024 SPF)
DDT mode : Lossy
Delay relative to video : -166 ms
Stream size : 124 MiB (5%)
Language : English
Default : Yes
Forced : No

 

 

DDT 2020 06 27 TV Show 8 Full Show Online

 

 

 

Watch online

 

 

Server 1

 

 

 

 

watch now

 

 

 

 

Server 2

 

 

 

watch now

 

 

 

Server-3

 

 

 

 DDT

 

 

 

Uploaded By Site DX-TV.com

 

 

 

Download with premium account Links 

 

 

Keep2Share

 

 

nitroflare.com

 

 

rapidgator.net

 

 

uploadgig.com

 

 

 

dx-tv.com

 

urlfree.net

 158 total views,  1 views today

Leave a Reply

Your email address will not be published. Required fields are marked *

This site uses Akismet to reduce spam. Learn how your comment data is processed.

%d bloggers like this:
Optimized with PageSpeed Ninja