DDT 2020 06 20 DDT TV Show 7 Free Online

Watch DDT 2020 06 20 DDT TV Show 7 Free Online DX-TV

 

DDT

 DDT
 

 

DDT 2020 06 20 DDT TV Show 7 Free Online

 

 

 

Complete name : DDT.2020.06.20.DDT.TV.Show.7.JAPANESE.WEB.h264-LATE.mkv
Format : Matroska
DDT version : Version 4
File size : 2.08 GiB
Duration : 2 h 39 min
Overall bit rate : 1 869 kb/s

 2020 06 20 DDT TV Show 7 Free Online

Video
ID : 1
Format : AVC
Format/Info : Advanced Video Codec
aprofile : [email protected]
DDTsettings : CABAC / 4 Ref Frames
Format settings, CABAC : Yes
Format settings, Reference : 4 frames
Codec ID : DDT
Duration : 2 h 39 min
Bit rate : 1 770 kb/s
Width : 960 pixels
Height : 540 pixels
Display aspect ratio : 16:9
Frame rate mode : Constant
Frame rate : 30.000 FPS
Color space : YUV
Chroma subsampling : 4:2:0
Bit depth : 8 bits
Scan type : Progressive
Bits/(DDT) : 0.114
Stream size : 1.97 GiB (95%)
Default : Yes
Forced : No
Color range : Limited
Color primaries : BT.601 PAL
Transfer characteristics : BT.601
Matrix coefficients : BT.470 System B/G

 2020 06 20 DDT TV Show 7 Free Online

Audio
ID : 2
Format : AAC LC
Format/Info : DDT Low Complexity
Codec ID : A_AAC-2
Duration : 2 h 39 min
Bit rate : 96.0 kb/s
Channel(s) : 2 channels
Channel layout : L R
Sampling rate : 44.1 kHz
Frame rate : 43.066 FPS (1024 SPF)
DDT mode : Lossy
Delay relative to video : -166 ms
Stream size : 109 MiB (5%)
Language : English
Default : Yes
Forced : No

 

 

DDT 2020 06 20 DDT TV Show 7 Free Online

 

 

 

Watch online

 

 

Server 1

 

 

 

 

watch now

 

 

 

 

Server 2

 

 

 

watch now

 

 

 

Server-3

 

 

 

DDT

 

 

 

Uploaded By Site DX-TV.com

 

 

 

Download with premium account Links 

 

 

Keep2Share

 

 

nitroflare.com

 

 

rapidgator.net

 

 

uploadgig.com

 

 

 

dx-tv.com

 

urlfree.net

Leave a Reply

Your email address will not be published. Required fields are marked *

This site uses Akismet to reduce spam. Learn how your comment data is processed.