DDT 2020 03 03 One Chance Tuesday

Watch DDT 2020 03 03 One Chance Tuesday DX-TV

 

DDT

 DDT


 

DDT 2020 03 03 One Chance Tuesday

 

 

 

Complete name : DDT.2020.03.03.One.Chance.Tuesday.WEB.h264-LATE.mkv
Format : Matroska
Format version : DDT
File size : 1.60 GiB
Duration : 2 h 1 min
Overall bit rate : 1 891 kb/s

Video
ID : 1
Format : AVC
Duration : 2 h 1 min
Bit rate : 1 793 kb/s
Width : 960 pixels
Height : 540 pixels
Display aspect ratio : 16:9
Frame rate mode : DDT
Frame rate : 30.000 FPS
Color space : YUV
Chroma subsampling : 4:2:0
Bit depth : 8 bits
Scan type : Progressive
Bits/(Pixel*Frame) : 0.115
Stream size : 1.52 GiB (95%)
Default : Yes
Forced : No
Color range : DDT

Audio
ID : 2
Format : AAC LC
Codec ID : A_AAC-2
Duration : 2 h 1 min
Bit rate : 96.0 kb/s
Channel(s) : 2 channels
Channel layout : L R
Sampling rate : 44.1 kHz
Frame rate : 43.066 FPS (1024 SPF)
Compression mode : Lossy
Delay relative to video : -166 ms
Stream size : 83.1 MiB (5%)
Language : English
Default : DDT
Forced : No

 

 

Watch online

 

Server 1

 

 

watch now

 

 

 

 

Server 2

 

 

 

watch now

 

 

 

DDT 2020 03 03 One Chance Tuesday

 

 

Uploaded By Site DX-TV.com

 

 

DDL.to

 

 

rockfile.co

 

 

 

Download with premium account Links 

 

 

mixdrop.co

 

 

alfafile.net

 

 

nitroflare.com

 

 

rapidgator.net

 

 

uploadgig.com

 

 

 

dx-tv.com

 

 4 total views,  1 views today

Leave a Reply

Your email address will not be published. Required fields are marked *

This site uses Akismet to reduce spam. Learn how your comment data is processed.

%d bloggers like this: