Day 8 NJPW G1 CLIMAX 30 Free Online 2020 10 01

WatchDay 8 NJPW G1 CLIMAX 30 Free Online 2020 10 01 DX-TV

 

NJPW G1 CLIMAX 30 Day 8

 

 NJPW G1 CLIMAX 30 Day 8

Day 8 NJPW G1 CLIMAX 30 Free Online 2020 10 01

 

 

KENTA (2-1) vs EVIL (1-2)

Singles record: 1-0 KENTA (2019 G1)

 

We are one G1 removed from KENTA defeating EVIL in Korakuen Hall, but in Nagaoka some 14 months on, very different dynamics surround the rematch.

KENTA and EVIL both seemed so far from the BULLET CLUB radar last year, but both are now not only part of the group, but successful and prominent members. 

NJPW G1 CLIMAX 30 Day 8

The New Japan Cup winners at home and in the USA, EVIL made good on his prize, converting into double IWGP gold, while KENTA has held fast onto the IWGP US Heavyweight Right to Challenge briefcase, his title match pending. Purely in terms of hardware attained in 2020, that would make the two men the highest ranked BULLET CLUB heavyweights of the year thus far, and creates interesting questions.

Will this be a cleanly fought battle over two points? After months of separation, are the BULLET CLUB’s arms in the US and Japan working in tandem? Will Dick Togo be as involved as he was in the corner of EVIL against Zack Sabre Junior and YOSHI-HASHI? All the moving parts of a faction derby in the G1 are at play for what will be a talked about affair. 

NJPW G1 CLIMAX 30 Day 8

Complete name : NJPW G1 CLIMAX 30 Day 8 2020 10 01 WEB H264 DX-TV.mp4
Format : MPEG-4
Format profile : Base Media
Codec ID : isom
File size : 2.09 GiB
Duration : 2 h 31 min
Overall bit rate : 1 967 kb/s
Writing application : Lavf58.25.100

NJPW G1 CLIMAX 30 Day 8

Video
ID : 1
Format : AVC
Format/Info : Advanced
Duration : 2 h 31 min
Bit rate : 1 858 kb/s
Width : 960 pixels
Height : 540 pixels
Display aspect ratio : 16:9
Frame rate mode : Variable
Frame rate : 30.000 FPS
Color space : YUV
Chroma : 4:2:0
Bit depth : 8 bits
Scan type : Progressive
Bits/(Pixel*Frame) : 0.119
Stream size : 1.97 GiB (94%)
Color range : Limited
Color primaries : BT.601 PAL
Transfer characteristics : BT.601
Matrix coefficients : BT.470 System B/G
Codec configuration box : avcC

 G1 CLIMAX 30 Day 8

Audio
ID : 2
Format : AAC LC
Format/Info : Advanced Audio
Codec ID : mp4a-40-2
Duration : 2 h 31 min
Bit rate mode : Constant
Bit rate : 99.4 kb/s
Channel(s) : 2 channels
Channel layout : L R
Sampling rate : 44.1 kHz
Frame rate : 43.066 FPS (1024 SPF)
Compression mode : Lossy
Stream size : 108 MiB (5%)
Default : Yes
Alternate group : 1

 

 

 

Day 8 NJPW G1 CLIMAX 30 Free Online 2020 10 01

 

 

 

 

Watch online

 

 

 

 

 

Server 1

 

 

 

 

watch now

 

 

 

 

Server-2

 

 

 

NJPW G1 CLIMAX 30 Day 8

 

 

 

 

Server-3

 

 

 

watch now

 

 

 

 

Uploaded By Site DX-TV.com

 

 

 

 

Download Free Links with normal and high Speed [ more 15 hosts ]  

 

 

 

http://shrt10.com/qEpODM
http://shrt10.com/tAkE3
http://shrt10.com/exGUDeI0
http://shrt10.com/G9YAkmn
http://shrt10.com/qQP46g
http://shrt10.com/Zkk3Q
http://shrt10.com/KGGlya
http://shrt10.com/JymDBmYc7
http://shrt10.com/j7n0V
http://shrt10.com/uhATeEl
http://shrt10.com/Idx0QaHJC

 

 

 

 

Download Links with premium High Speed   

 

 

 

 

 

Keep2Share

 

 

 

nitroflare.com

 

 

 

rapidgator.net

 

 

 

uploaded.net

 

 

 

uploadgig.com

 

 

 

 

 

dx-tv.com

 

urlfree.net

Leave a Reply

Your email address will not be published. Required fields are marked *

This site uses Akismet to reduce spam. Learn how your comment data is processed.