Day 2 NJPW English Best Of The Super Jr 27 2020 720p

Watch Day 2 NJPW Best Of The Super Jr 27 2020 11 16 English 720p DX-TV

NJPW Best Of The Super Jr 27 Day 2

 

 NJPW Best Of The Super Jr 27 Day 2

 

Day 2 NJPW English Best Of The Super Jr 27 2020 720p

 

 

[su_expand more_text=”Show More Info” less_text=”Close all Info” height=”30″ text_color=”#000000″ link_color=”#e25f8b” link_style=”button” more_icon=”icon: arrow-down” less_icon=”icon: arrow-up”]

 

Complete name : NJPW.2020.11.16.World.Tag.League.2020.Day.2.ENGLISH.720p.WEB.h264-LATE.mkv
Format : Matroska
Format version : Version 4
File size : 1.92 GiB
Duration : 2 h 15 min
Overall bit rate : 2 032 kb/s

NJPW Best Of The Super Jr 27 Day 2

Video
ID : 1
Format : AVC
Duration : 2 h 15 min
Bit rate : 1 904 kb/s
Width : 1 280 pixels
Height : 720 pixels
Display aspect ratio : 16:9
rate mode : Constant
Frame rate : 30.000 FPS
Color space : YUV
Chroma subsampling : 4:2:0
Bit depth : 8 bits
Scan type : Progressive
Bits/(Pixel*Frame) : 0.069
Stream size : 1.80 GiB

NJPW Best Of The Super Jr 27 Day 2

Audio
ID : 2
Format : AAC LC
Info : Advanced Audio
Codec ID : A_AAC-2
Duration : 2 h 15 min
Bit rate : 126 kb/s
Channel(s) : 2 channels
Channel layout : L R
Sampling rate : 44.1 kHz
Frame rate : 43.066 FPS
Compression mode : Lossy
Delay relative to video : -23 ms
Stream size : 121 MiB
Language : English
Default : Yes
Forced : No

NJPW Best Of The Super Jr 27 Day 2

3rd Match: CHAOS (Hirooki Goto & YOSHI-HASHI) (0-1) vs The Empire (Great-O-Khan & Jeff Cobb) (1-0)

Sunday night saw the newest member of The Empire revealed as Jeff Cobb, in a huge acquisition for the newest faction in NJPW.

Cobb and O-Khan presented a formidable, powerful team that blew through HenarACE Sunday,

and will be a hard prospect to ignore for the rest of this tournament.

With a lot of questions no doubt lingering about the Empire’s rise in the wake of former teammate .

Will Osprey’s departure from CHAOS, how will Goto and YOSHI-HASHI react in Komatsu?

 

Day 2 NJPW English Best Of The Super Jr 27 2020 720p

 

 

[/su_expand]

 

 

Watch online

 

 

Server 1

 

 

 

 

 

 

Server-2

 

 

 

 

 

 

Uploaded By Site DX-TV.com

 

NJPW Best Of The Super Jr 27 Day 2

 

Download Links with premium High Speed   

 

 

 

 

dropapk.to

 

 

 

nitroflare.com

 

 

 

rapidgator.net

 

 

 

uploaded.net

 

 

 

uploadgig.com

 

 

 

 

 

dx-tv.com

 

urlfree.net

You May Also Like

Leave a Reply

Your email address will not be published. Required fields are marked *

This site uses Akismet to reduce spam. Learn how your comment data is processed.