Day 12 G1 Climax 30 English 2020 10 08 720p NJPW Online

Watch Day 12 G1 Climax 30 English 2020 10 08 720p NJPW Online DX-TV

Day 12 G1 Climax 30 English

 

 Day 12 G1 Climax 30 English

 

Day 12 G1 Climax 30 English 2020 10 08 720p NJPW Online

 

 

Complete name : NJPW.2020.10.08.G1.Climax.30.Day.12.ENGLISH.720p.WEB.h264-LATE.mkv
Format : Matroska
Format version : Version 4
File size : 2.17 GiB
Duration : 2 h 33 min
Overall bit rate : 2 032 kb/s

Day 12 G1 Climax 30 English

Video
ID : 1
Format : AVC
Codec ID : V_MPEG4
Duration : 2 h 33 min
Bit rate : 1 904 kb/s
Width : 1 280 pixels
Height : 720 pixels
aspect ratio : 16:9
Frame rate mode : Constant
Frame rate : 30.000 FPS
Color space : YUV
Chroma : 4:2:0
Bit depth : 8 bits
Scan type : Progressive
Bits/(Pixel*Frame) : 0.069
Stream size : 2.04 GiB (94%)

Day 12 G1 Climax 30 English

Audio
ID : 2
Format : AAC LC
Format/Info : Advanced Audio
Codec ID : A_AAC-2
Duration : 2 h 33 min
Bit rate : 126 kb/s
Channel(s) : 2 channels
Channel layout : L R
Sampling rate : 44.1 kHz
Frame rate : 43.066 FPS
Compression mode : Lossy
relative to video : -23 ms
Stream size : 137 MiB (6%)
Language : English
Default : Yes
Forced : No

Day 12 G1 Climax 30 English

Juice Robinson (3-2) vs Tetsuya Naito (4-1)

Singles record: 3-0 Naito, G1 record 2-0 Naito

 

Juice Robinson has a long history with Tetsuya Naito, and unfortunately for juice, it’s an unhappy one.

Robinson’s first ever tour with NJPW in 2015 happened to coincide with Tetsuya Naito having .

his final tour as the lone representative of Los Ingobernables in Japan,

before hew recruited EVIL and then BUSHI to form LIJ.

Every night resulted in some rough treatment from Naito to his ‘partner’,

treatment that Naito even now remembers as a valuable character building exercise for the man.

who went on to become an IWGP US Heavyweight Champion. 

12 G1 Climax 30 English

Juice has had chances to address history, with an IWGP Intercontinental Championship match in 2017, and a pair of G1 meetings in the last two years.

but he’s fallen short each time. Now, he heads into Okayama with a winning record and a desire to bounce back from a bitter loss to EVIL.

Here, a chance to not just get long awaited revenge on Naito, but potentially a win over the double IWGP champion.

As an added sweetener, with Juice two points off Naito’s pace, a win would put him tied at the top of the block with an all important tie breaker. 

 

12 G1 Climax 30 English 2020 10 08 720p NJPW Online

 

 

 

 

Watch online

 

 

 

 

 

Server 1

 

 

 

 

Day 11 G1 Climax 30 English

 

 

 

 

Server-2

 

 

 

watch now

 

 

 

 

Server-3

 

 

 

watch now

 

 

 

 

Uploaded By Site DX-TV.com

 

 

 

 

Download Free Links with normal and high Speed [ more 14 hosts ]  

 

 

 

 

http://shrt10.com/nmCzj
http://shrt10.com/TM5PYARp3
http://shrt10.com/0d8TqrNeF
http://shrt10.com/IPb1l
http://shrt10.com/645xx
http://shrt10.com/Q4AJxvC
http://shrt10.com/JNCbKal
http://shrt10.com/TtKoo1G
http://shrt10.com/wM3pSEPB

 

 

 

Download Links with premium High Speed   

 

 

 

dropapk.to

 

 

 

nitroflare.com

 

 

 

rapidgator.net

 

 

 

uploaded.net

 

 

 

uploadgig.com

 

 

 

 

 

dx-tv.com

 

urlfree.net

Leave a Reply

Your email address will not be published. Required fields are marked *

This site uses Akismet to reduce spam. Learn how your comment data is processed.