Day 1 Road to Power Struggle NJPW English 2020 10 23

NJPW 2020 10 23 Road to Power Struggle Day 1 English 720p DX-TV

 

Road to Power Struggle

 

 Watch Wrestling NJPW
 


 

 

Day 1 Road to Power Struggle NJPW English 2020 10 23

 

Suzuki-Gun and LIJ rematch to headline in Korakuen

 

After a contentious start to the Road to Power Struggle tour on October 23, the cards for the remainder of the tour have now been finalised, with two title matches in back to back nights from Korakuen Hall on November 1 and 2. 

The main event on November 1 will see the IWGP Junior Heavyweight Tag Team Championships on the line as Hiromu Takahashi and BUSHI challenge Yoshinobu Kanemaru and El Desperado. During New Japan Road, Desperado and Kanemaru emerged victorious in a four team league, eventually defeating Hiromu and BUSHI in Korakuen Hall to lift the IWGP Junior Heavyweight Tag Team Championships for the second time. 

Road to Power Struggle

When Hiromu returned to action on October 18, he immediately struck a blow to Kanemaru with a Time Bomb, and made plans for he and BUSHI to challenge very clear. With no title match official, the LIJ duo took matters into their own hands on October 23,  exploding with high impact offense to both champions before Shingo Takagi picked up the win for the Ingobernables side with a Pumping Bomber to Kanemaru. Post match Hiromu acknowledged that while he and BUSHI lost to the champions in the title deciding league, they didn’t get an opportunity at the Suzuki-Gun side as champions, adding that Desperado couldn’t say it would be no fun. Desperado begrudgingly accepted the challenge, and now the match is set for Sunday. 

Road to Power Struggle

Complete name : NJPW.2020.10.23.Road.to.Power.Struggle.Day.1.ENGLISH.720p.WEB.h264-LATE.mkv
Format : Matroska
Format version : Version 4
File size : 2.20 GiB
Duration : 2 h 35 min
Overall bit rate : 2 032 kb/s

Road to Power Struggle

Video
ID : 1
Format : AVC
Duration : 2 h 35 min
Bit rate : 1 904 kb/s
Width : 1 280 pixels
Height : 720 pixels
Display aspect ratio : 16:9
Frame rate mode : Constant
Frame rate : 30.000 FPS
Color space : YUV
Chroma subsampling : 4:2:0
Bit depth : 8 bits
Scan type : Progressive
Bits/(Pixel*Frame) : 0.069
Stream size : 2.06 GiB

Road to Power Struggle

Audio
ID : 2
Format : AAC LC
Format/Info : Advanced
Codec ID : A_AAC-2
Duration : 2 h 35 min
Bit rate : 126 kb/s
Channel(s) : 2 channels
Channel layout : L R
Sampling rate : 44.1 kHz
Frame rate : 43.066 FPS
Compression mode : Lossy
Delay relative to video : -23 ms
Stream size : 139 MiB (6%)
Language : English
Default : Yes
Forced : No

 

 

 

Day 1 Road to Power Struggle NJPW English 2020 10 23

 

 

 

 

Watch online

 

 

 

 

 

Server 1

 

 

 

 

Road to Power Struggle

 

 

 

 

Server-3

 

 

 

watch now

 

 

 

 

Uploaded By Site DX-TV.com

 

 

 

 

Download Free Links with normal and high Speed [ more 14 hosts ]  

 

[su_expand more_text=”Show Hosts Info” less_text=”Close all Info” height=”30″ text_color=”#000000″ link_color=”#e25f8b” link_style=”button” more_icon=”icon: arrow-down” less_icon=”icon: arrow-up”]

Road to Power Struggle

 

hexupload.net – clicknupload.co – www.multiup.org – uptobox.com – anonfiles.com – userscloud.com –

dropapk.to alfafile.net – ddownload.com – rockfile.co – 1fichier.com – filedown.org – katfile.com – filerio.in

 

 

[/su_expand]

 

 

 

http://shrt10.com/OC8Gw
http://shrt10.com/nJT7y
http://shrt10.com/BZy31
http://shrt10.com/1Dcb4Srg
http://shrt10.com/08ulNI
http://shrt10.com/QgR7uZB5
http://shrt10.com/P9ydjn
http://shrt10.com/Riyqo

 

 

 

Download Links with premium High Speed   

 

 

 

 

dropapk.to

 

 

 

nitroflare.com

 

 

 

rapidgator.net

 

 

 

uploaded.net

 

 

 

uploadgig.com

 

 

 

 

 

dx-tv.com

 

urlfree.net

Leave a Reply

Your email address will not be published. Required fields are marked *

This site uses Akismet to reduce spam. Learn how your comment data is processed.