Dark Side Of The Ring S02E01 Benoit 720p HDTV Full Show

Watch Dark Side Of The Ring S02E01 Benoit 720p HDTV NWCHD 2 Part DX-TV

Dark Side

 Dark Side

 

 

Dark Side Of The Ring S02E01 Benoit 720p HDTV Full Show

 

 

Full Show 2 Part

Complete name : Dark.Side.Of.The.Ring.S02E01.Benoit.720p.HDTV.x264-NWCHD.mp4
Format : MPEG-4
Format profile : Dark Side
Codec ID : isom
File size : 2.78 GiB
Duration : 1 h 25 min
Overall bit rate : 4 656 kb/s
Writing application : Lavf58.27.103

Video
ID : 1
Format : AVC
Duration : 1 h 25 min
Bit rate : 4 500 kb/s
Width : 1 280 pixels
Height : 720 pixels
Display aspect ratio : 16:9
Frame rate mode : Dark Side
Frame rate : 29.970 (30000/1001) FPS
Minimum frame rate : 13.447 FPS
Maximum frame rate : 29.970 FPS
Color space : YUV
Chroma subsampling : 4:2:0
Bit depth : 8 bits
Scan type : Dark Side
Bits/(Pixel*Frame) : 0.163
Stream size : 2.66 GiB (96%)
Color primaries : BT.709
Transfer : Dark Side
Matrix coefficients : BT.709
Codec configuration box : avcC

Audio
ID : 2
Format : AAC LC
Format/Info : Dark Side
Codec ID : mp4a-40-2
Duration : 1 h 25 min
Bit rate mode : Dark Side
Bit rate : 192 kb/s
Channel(s) : 2 channels
Channel layout : L R
Sampling rate : 48.0 kHz
Frame rate : 46.875 FPS (1024 SPF)
Compression mode : Lossy
Stream size : 117 MiB (4%)
Title : Stereo
Default : Yes
Alternate group : Dark Side

 

 

 

Watch online

 

 

Server 1

 

 

 

 

watch now

 

 

 

 

Server 2

 

 

 

watch now

 

 

 

Dark Side Of The Ring S02E01 Benoit HDTV Full Show

 

 

Uploaded By Site DX-TV.com

 

 

Download with Free LinksĀ 

 

 

1fichier.com

https://shrt10.com/o8bmC4s
https://shrt10.com/Pw9yG

 

DDL.to

https://shrt10.com/PLSvZGg
https://shrt10.com/jxOhRmJ

 

rockfile.co

https://shrt10.com/ABYmtEa
https://shrt10.com/JV7MbB

 

 

Download with premium account LinksĀ 

 

 

Keep2Share

 

 

mixdrop.co

 

 

alfafile.net

 

 

nitroflare.com

 

 

rapidgator.net

 

 

uploadgig.com

 

 

 

dx-tv.com

 

urlfree.net

Leave a Reply

Your email address will not be published. Required fields are marked *

This site uses Akismet to reduce spam. Learn how your comment data is processed.