CMLL 2020 03 13 720p WEB DX-TV

Watch CMLL 2020 03 13 720p WEB DX-TV

 

CMLL

 CMLL

 

 

CMLL 2020 03 13 720p WEB DX-TV

 

 

Complete name : CMLL 2020 03 13 720p WEB DX-TV.mp4
Format : MPEG-4
Format profile :CMLL
Codec ID : isom
File size : 1.69 GiB
Duration : 2 h 0 min
Overall bit rate : 2 017 kb/s
Movie name : CMLL
Writing application : Lavf57.48.100

Video
ID : 1
Format : AVC
Duration : 2 h 0 min
Bit rate : 1 881 kb/s
Width : 1 280 pixels
Height : 720 pixels
Display aspect ratio : 16:9
Frame rate mode : CMLL
Frame rate : 30.000 FPS
Minimum frame rate : 29.412 FPS
Maximum frame rate : 30.303 FPS
Color space : YUV
Chroma subsampling : 4:2:0
Bit depth : 8 bits
Scan type : CMLL
Bits/(Pixel*Frame) : 0.068
Stream size : 1.58 GiB (93%)
Color range : Limited
Color primaries : CMLL
Transfer characteristics : BT.709
Matrix coefficients : BT.709
Codec configuration box : avcC

Audio
ID : 2
Format : AAC LC
Format/Info : CMLL
Codec ID : mp4a-40-2
Duration : 2 h 0 min
Bit rate mode : CMLL
Bit rate : 128 kb/s
Channel(s) : 2 channels
Channel layout : L R
Sampling rate : 48.0 kHz
Frame rate : 46.875 FPS (1024 SPF)
Compression mode : Lossy
Stream size : 110 MiB (6%)
Default : CMLL
Alternate group : 1

 

 

 

Watch online

 

 

Server 1

 

 

 

 

watch now

 

 

 

 

Server 2

 

 

 

watch now

 

 

 

CMLL 2020 03 13 720p WEB DX-TV

 

 

Uploaded By Site DX-TV.com

 

 

Download with Free Links 

 

 

1fichier.com

 

 

DDL.to

 

 

rockfile.co

 

 

 

Download with premium account Links 

 

 

Keep2Share

 

 

mixdrop.co

 

 

alfafile.net

 

 

nitroflare.com

 

 

rapidgator.net

 

 

uploadgig.com

 

 

 

dx-tv.com

 

urlfree.net

 20 total views,  1 views today

Leave a Reply

Your email address will not be published. Required fields are marked *

This site uses Akismet to reduce spam. Learn how your comment data is processed.

%d bloggers like this: