Chyna Vice Documentary 2021 1080p Online Free Replay DX-TV

Contents show

Chyna Vice Documentary 2021

 Chyna Vice Documentary 2021

 

 

 

Download Links with premium High Speed


Dopapk

 

 

Show Links

 

http://shrt10.com/4IVIIkm
http://shrt10.com/NVjtKgRE

 

[collapse]

 

 

Nitroflare

 

 

Show Links

 

http://shrt10.com/Fud6BS
http://shrt10.com/hooZBB6pV

 

[collapse]

 

 

Rapidgator

 

 

Show Links

 

http://shrt10.com/et8ed
http://shrt10.com/VH1hOOP

 

[collapse]

 

 

Uploaded

 

 

Show Links

 

http://shrt10.com/UBz0pj
http://shrt10.com/olaXL

 

[collapse]

 

 

Watch online

 

Server 1

 

 

 

 

Chyna Vice Documentary 2021

 

 

 

 

Server-2

 

 

 

 

watch now

 

 

 

|Server-4

 

 

 

 

watch now

 

 

Uploaded By Site DX-TV.com

 

 

Show Info This Show

Chyna Vice Documentary 2021

 

Complete name : Chyna.VICE.1080p.WEB.h264-timster.mkv
Format : Matroska
Format version : Version 4
File size : 2.94 GiB
Duration : 1 h 29 min
Overall bit rate : 4 681 kb/s

Video
ID : 1
Format : AVC
Format/Info : Advanced Video
Duration : 1 h 29 min
Bit rate : 4 553 kb/s
Width : 1 920 pixels
Height : 1 080 pixels
Display aspect ratio : 16:9
Frame rate mode : Variable
Frame rate : 23.976 FPS
Color space : YUV
Chroma subsampling : 4:2:0
Bit depth : 8 bits
Scan type : Progressive
Bits/(Pixel*Frame) : 0.092
Stream size : 2.86 GiB (97%)
Default : Yes
Forced : No

Chyna Vice Documentary 2021

Audio
ID : 2
Format : AAC LC
Format/Info : Advanced Audio
Codec ID : A_AAC-2
Duration : 1 h 29 min
Bit rate : 125 kb/s
Channel(s) : 2 channels
Channel layout : L R
Sampling rate : 48.0 kHz
Frame rate : 46.875 FPS
Compression mode : Lossy
Stream size : 80.5 MiB (3%)
Default : Yes
Forced : No

Complete name : Chyna.Documentary.2021.HDTV.x264-NWCHD.mp4
Format : MPEG-4
Format profile : Base Media
Codec ID : mp42
File size : 1.00 GiB
Duration : 1 h 29 min
Overall bit rate mode : Variable
Overall bit rate : 1 598 kb/s

Chyna Vice Documentary 2021

Video
ID : 1
Format : AVC
Format/Info : Advanced Video
Duration : 1 h 29 min
Bit rate : 1 400 kb/s
Width : 704 pixels
Height : 400 pixels
Display aspect ratio : 16:9
Frame rate mode : Constant
Frame rate : 29.970 (30000/1001) FPS
Color space : YUV
Chroma subsampling : 4:2:0
Bit depth : 8 bits
Scan type : Progressive
Bits/(Pixel*Frame) : 0.166
Stream size : 897 MiB (88%)
Color range : Limited
Color primaries : BT.709
Transfer characteristics : BT.709
Matrix coefficients : BT.709
Codec configuration box : avcC

Chyna Vice Documentary 2021

Audio
ID : 2
Format : AAC LC
Format/Info : Advanced Audio
Codec ID : mp4a-40-2
Duration : 1 h 29 min
Bit rate mode : Variable
Bit rate : 192 kb/s
Channel(s) : 2 channels
Channel layout : L R
Sampling rate : 48.0 kHz
Frame rate : 46.875 FPS (1024 SPF)
Compression mode : Lossy
Stream size : 123 MiB (12%)
Title : Stereo / Stereo
Language : English
Default : Yes
Alternate group : 1

Chyna Vice Documentary 2021

Complete name : Chyna.VICE.1080p.WEB.h264-timster.mkv
Format : Matroska
Format version : Version 4
File size : 2.94 GiB
Duration : 1 h 29 min
Overall bit rate : 4 681 kb/s

Video
ID : 1
Format : AVC
Format/Info : Advanced Video
Duration : 1 h 29 min
Bit rate : 4 553 kb/s
Width : 1 920 pixels
Height : 1 080 pixels
Display aspect ratio : 16:9
Frame rate mode : Variable
Frame rate : 23.976 FPS
Color space : YUV
Chroma subsampling : 4:2:0
Bit depth : 8 bits
Scan type : Progressive
Bits/(Pixel*Frame) : 0.092
Stream size : 2.86 GiB (97%)
Default : Yes
Forced : No

Chyna Vice Documentary 2021

Audio
ID : 2
Format : AAC LC
Format/Info : Advanced Audio
Codec ID : A_AAC-2
Duration : 1 h 29 min
Bit rate : 125 kb/s
Channel(s) : 2 channels
Channel layout : L R
Sampling rate : 48.0 kHz
Frame rate : 46.875 FPS
Compression mode : Lossy
Stream size : 80.5 MiB (3%)
Default : Yes
Forced : No

Complete name : Chyna.Documentary.2021.HDTV.x264-NWCHD.mp4
Format : MPEG-4
Format profile : Base Media
Codec ID : mp42
File size : 1.00 GiB
Duration : 1 h 29 min
Overall bit rate mode : Variable
Overall bit rate : 1 598 kb/s

Chyna Vice Documentary 2021

Video
ID : 1
Format : AVC
Format/Info : Advanced Video
Duration : 1 h 29 min
Bit rate : 1 400 kb/s
Width : 704 pixels
Height : 400 pixels
Display aspect ratio : 16:9
Frame rate mode : Constant
Frame rate : 29.970 (30000/1001) FPS
Color space : YUV
Chroma subsampling : 4:2:0
Bit depth : 8 bits
Scan type : Progressive
Bits/(Pixel*Frame) : 0.166
Stream size : 897 MiB (88%)
Color range : Limited
Color primaries : BT.709
Transfer characteristics : BT.709
Matrix coefficients : BT.709
Codec configuration box : avcC

Chyna Vice Documentary 2021

Audio
ID : 2
Format : AAC LC
Format/Info : Advanced Audio
Codec ID : mp4a-40-2
Duration : 1 h 29 min
Bit rate mode : Variable
Bit rate : 192 kb/s
Channel(s) : 2 channels
Channel layout : L R
Sampling rate : 48.0 kHz
Frame rate : 46.875 FPS (1024 SPF)
Compression mode : Lossy
Stream size : 123 MiB (12%)
Title : Stereo / Stereo
Language : English
Default : Yes
Alternate group : 1

Chyna Vice Documentary 2021

Complete name : Chyna.VICE.1080p.WEB.h264-timster.mkv
Format : Matroska
Format version : Version 4
File size : 2.94 GiB
Duration : 1 h 29 min
Overall bit rate : 4 681 kb/s

Video
ID : 1
Format : AVC
Format/Info : Advanced Video
Duration : 1 h 29 min
Bit rate : 4 553 kb/s
Width : 1 920 pixels
Height : 1 080 pixels
Display aspect ratio : 16:9
Frame rate mode : Variable
Frame rate : 23.976 FPS
Color space : YUV
Chroma subsampling : 4:2:0
Bit depth : 8 bits
Scan type : Progressive
Bits/(Pixel*Frame) : 0.092
Stream size : 2.86 GiB (97%)
Default : Yes
Forced : No

Chyna Vice Documentary 2021

Audio
ID : 2
Format : AAC LC
Format/Info : Advanced Audio
Codec ID : A_AAC-2
Duration : 1 h 29 min
Bit rate : 125 kb/s
Channel(s) : 2 channels
Channel layout : L R
Sampling rate : 48.0 kHz
Frame rate : 46.875 FPS
Compression mode : Lossy
Stream size : 80.5 MiB (3%)
Default : Yes
Forced : No

Complete name : Chyna.Documentary.2021.HDTV.x264-NWCHD.mp4
Format : MPEG-4
Format profile : Base Media
Codec ID : mp42
File size : 1.00 GiB
Duration : 1 h 29 min
Overall bit rate mode : Variable
Overall bit rate : 1 598 kb/s

Chyna Vice Documentary 2021

Video
ID : 1
Format : AVC
Format/Info : Advanced Video
Duration : 1 h 29 min
Bit rate : 1 400 kb/s
Width : 704 pixels
Height : 400 pixels
Display aspect ratio : 16:9
Frame rate mode : Constant
Frame rate : 29.970 (30000/1001) FPS
Color space : YUV
Chroma subsampling : 4:2:0
Bit depth : 8 bits
Scan type : Progressive
Bits/(Pixel*Frame) : 0.166
Stream size : 897 MiB (88%)
Color range : Limited
Color primaries : BT.709
Transfer characteristics : BT.709
Matrix coefficients : BT.709
Codec configuration box : avcC

Chyna Vice Documentary 2021

Audio
ID : 2
Format : AAC LC
Format/Info : Advanced Audio
Codec ID : mp4a-40-2
Duration : 1 h 29 min
Bit rate mode : Variable
Bit rate : 192 kb/s
Channel(s) : 2 channels
Channel layout : L R
Sampling rate : 48.0 kHz
Frame rate : 46.875 FPS (1024 SPF)
Compression mode : Lossy
Stream size : 123 MiB (12%)
Title : Stereo / Stereo
Language : English
Default : Yes
Alternate group : 1

Chyna Vice Documentary 2021

Complete name : Chyna.VICE.1080p.WEB.h264-timster.mkv
Format : Matroska
Format version : Version 4
File size : 2.94 GiB
Duration : 1 h 29 min
Overall bit rate : 4 681 kb/s

Video
ID : 1
Format : AVC
Format/Info : Advanced Video
Duration : 1 h 29 min
Bit rate : 4 553 kb/s
Width : 1 920 pixels
Height : 1 080 pixels
Display aspect ratio : 16:9
Frame rate mode : Variable
Frame rate : 23.976 FPS
Color space : YUV
Chroma subsampling : 4:2:0
Bit depth : 8 bits
Scan type : Progressive
Bits/(Pixel*Frame) : 0.092
Stream size : 2.86 GiB (97%)
Default : Yes
Forced : No

Chyna Vice Documentary 2021

Audio
ID : 2
Format : AAC LC
Format/Info : Advanced Audio
Codec ID : A_AAC-2
Duration : 1 h 29 min
Bit rate : 125 kb/s
Channel(s) : 2 channels
Channel layout : L R
Sampling rate : 48.0 kHz
Frame rate : 46.875 FPS
Compression mode : Lossy
Stream size : 80.5 MiB (3%)
Default : Yes
Forced : No

Complete name : Chyna.Documentary.2021.HDTV.x264-NWCHD.mp4
Format : MPEG-4
Format profile : Base Media
Codec ID : mp42
File size : 1.00 GiB
Duration : 1 h 29 min
Overall bit rate mode : Variable
Overall bit rate : 1 598 kb/s

Chyna Vice Documentary 2021

Video
ID : 1
Format : AVC
Format/Info : Advanced Video
Duration : 1 h 29 min
Bit rate : 1 400 kb/s
Width : 704 pixels
Height : 400 pixels
Display aspect ratio : 16:9
Frame rate mode : Constant
Frame rate : 29.970 (30000/1001) FPS
Color space : YUV
Chroma subsampling : 4:2:0
Bit depth : 8 bits
Scan type : Progressive
Bits/(Pixel*Frame) : 0.166
Stream size : 897 MiB (88%)
Color range : Limited
Color primaries : BT.709
Transfer characteristics : BT.709
Matrix coefficients : BT.709
Codec configuration box : avcC

Chyna Vice Documentary 2021

Audio
ID : 2
Format : AAC LC
Format/Info : Advanced Audio
Codec ID : mp4a-40-2
Duration : 1 h 29 min
Bit rate mode : Variable
Bit rate : 192 kb/s
Channel(s) : 2 channels
Channel layout : L R
Sampling rate : 48.0 kHz
Frame rate : 46.875 FPS (1024 SPF)
Compression mode : Lossy
Stream size : 123 MiB (12%)
Title : Stereo / Stereo
Language : English
Default : Yes
Alternate group : 1

Chyna Vice Documentary 2021

Complete name : Chyna.VICE.1080p.WEB.h264-timster.mkv
Format : Matroska
Format version : Version 4
File size : 2.94 GiB
Duration : 1 h 29 min
Overall bit rate : 4 681 kb/s

Video
ID : 1
Format : AVC
Format/Info : Advanced Video
Duration : 1 h 29 min
Bit rate : 4 553 kb/s
Width : 1 920 pixels
Height : 1 080 pixels
Display aspect ratio : 16:9
Frame rate mode : Variable
Frame rate : 23.976 FPS
Color space : YUV
Chroma subsampling : 4:2:0
Bit depth : 8 bits
Scan type : Progressive
Bits/(Pixel*Frame) : 0.092
Stream size : 2.86 GiB (97%)
Default : Yes
Forced : No

Chyna Vice Documentary 2021

Audio
ID : 2
Format : AAC LC
Format/Info : Advanced Audio
Codec ID : A_AAC-2
Duration : 1 h 29 min
Bit rate : 125 kb/s
Channel(s) : 2 channels
Channel layout : L R
Sampling rate : 48.0 kHz
Frame rate : 46.875 FPS
Compression mode : Lossy
Stream size : 80.5 MiB (3%)
Default : Yes
Forced : No

Complete name : Chyna.Documentary.2021.HDTV.x264-NWCHD.mp4
Format : MPEG-4
Format profile : Base Media
Codec ID : mp42
File size : 1.00 GiB
Duration : 1 h 29 min
Overall bit rate mode : Variable
Overall bit rate : 1 598 kb/s

Chyna Vice Documentary 2021

Video
ID : 1
Format : AVC
Format/Info : Advanced Video
Duration : 1 h 29 min
Bit rate : 1 400 kb/s
Width : 704 pixels
Height : 400 pixels
Display aspect ratio : 16:9
Frame rate mode : Constant
Frame rate : 29.970 (30000/1001) FPS
Color space : YUV
Chroma subsampling : 4:2:0
Bit depth : 8 bits
Scan type : Progressive
Bits/(Pixel*Frame) : 0.166
Stream size : 897 MiB (88%)
Color range : Limited
Color primaries : BT.709
Transfer characteristics : BT.709
Matrix coefficients : BT.709
Codec configuration box : avcC

Chyna Vice Documentary 2021

Audio
ID : 2
Format : AAC LC
Format/Info : Advanced Audio
Codec ID : mp4a-40-2
Duration : 1 h 29 min
Bit rate mode : Variable
Bit rate : 192 kb/s
Channel(s) : 2 channels
Channel layout : L R
Sampling rate : 48.0 kHz
Frame rate : 46.875 FPS (1024 SPF)
Compression mode : Lossy
Stream size : 123 MiB (12%)
Title : Stereo / Stereo
Language : English
Default : Yes
Alternate group : 1

Chyna Vice Documentary 2021

Complete name : Chyna.VICE.1080p.WEB.h264-timster.mkv
Format : Matroska
Format version : Version 4
File size : 2.94 GiB
Duration : 1 h 29 min
Overall bit rate : 4 681 kb/s

Video
ID : 1
Format : AVC
Format/Info : Advanced Video
Duration : 1 h 29 min
Bit rate : 4 553 kb/s
Width : 1 920 pixels
Height : 1 080 pixels
Display aspect ratio : 16:9
Frame rate mode : Variable
Frame rate : 23.976 FPS
Color space : YUV
Chroma subsampling : 4:2:0
Bit depth : 8 bits
Scan type : Progressive
Bits/(Pixel*Frame) : 0.092
Stream size : 2.86 GiB (97%)
Default : Yes
Forced : No

Chyna Vice Documentary 2021

Audio
ID : 2
Format : AAC LC
Format/Info : Advanced Audio
Codec ID : A_AAC-2
Duration : 1 h 29 min
Bit rate : 125 kb/s
Channel(s) : 2 channels
Channel layout : L R
Sampling rate : 48.0 kHz
Frame rate : 46.875 FPS
Compression mode : Lossy
Stream size : 80.5 MiB (3%)
Default : Yes
Forced : No

Complete name : Chyna.Documentary.2021.HDTV.x264-NWCHD.mp4
Format : MPEG-4
Format profile : Base Media
Codec ID : mp42
File size : 1.00 GiB
Duration : 1 h 29 min
Overall bit rate mode : Variable
Overall bit rate : 1 598 kb/s

Chyna Vice Documentary 2021

Video
ID : 1
Format : AVC
Format/Info : Advanced Video
Duration : 1 h 29 min
Bit rate : 1 400 kb/s
Width : 704 pixels
Height : 400 pixels
Display aspect ratio : 16:9
Frame rate mode : Constant
Frame rate : 29.970 (30000/1001) FPS
Color space : YUV
Chroma subsampling : 4:2:0
Bit depth : 8 bits
Scan type : Progressive
Bits/(Pixel*Frame) : 0.166
Stream size : 897 MiB (88%)
Color range : Limited
Color primaries : BT.709
Transfer characteristics : BT.709
Matrix coefficients : BT.709
Codec configuration box : avcC

Chyna Vice Documentary 2021

Audio
ID : 2
Format : AAC LC
Format/Info : Advanced Audio
Codec ID : mp4a-40-2
Duration : 1 h 29 min
Bit rate mode : Variable
Bit rate : 192 kb/s
Channel(s) : 2 channels
Channel layout : L R
Sampling rate : 48.0 kHz
Frame rate : 46.875 FPS (1024 SPF)
Compression mode : Lossy
Stream size : 123 MiB (12%)
Title : Stereo / Stereo
Language : English
Default : Yes
Alternate group : 1

Chyna Vice Documentary 2021

Complete name : Chyna.VICE.1080p.WEB.h264-timster.mkv
Format : Matroska
Format version : Version 4
File size : 2.94 GiB
Duration : 1 h 29 min
Overall bit rate : 4 681 kb/s

Video
ID : 1
Format : AVC
Format/Info : Advanced Video
Duration : 1 h 29 min
Bit rate : 4 553 kb/s
Width : 1 920 pixels
Height : 1 080 pixels
Display aspect ratio : 16:9
Frame rate mode : Variable
Frame rate : 23.976 FPS
Color space : YUV
Chroma subsampling : 4:2:0
Bit depth : 8 bits
Scan type : Progressive
Bits/(Pixel*Frame) : 0.092
Stream size : 2.86 GiB (97%)
Default : Yes
Forced : No

Chyna Vice Documentary 2021

Audio
ID : 2
Format : AAC LC
Format/Info : Advanced Audio
Codec ID : A_AAC-2
Duration : 1 h 29 min
Bit rate : 125 kb/s
Channel(s) : 2 channels
Channel layout : L R
Sampling rate : 48.0 kHz
Frame rate : 46.875 FPS
Compression mode : Lossy
Stream size : 80.5 MiB (3%)
Default : Yes
Forced : No

Complete name : Chyna.Documentary.2021.HDTV.x264-NWCHD.mp4
Format : MPEG-4
Format profile : Base Media
Codec ID : mp42
File size : 1.00 GiB
Duration : 1 h 29 min
Overall bit rate mode : Variable
Overall bit rate : 1 598 kb/s

Chyna Vice Documentary 2021

Video
ID : 1
Format : AVC
Format/Info : Advanced Video
Duration : 1 h 29 min
Bit rate : 1 400 kb/s
Width : 704 pixels
Height : 400 pixels
Display aspect ratio : 16:9
Frame rate mode : Constant
Frame rate : 29.970 (30000/1001) FPS
Color space : YUV
Chroma subsampling : 4:2:0
Bit depth : 8 bits
Scan type : Progressive
Bits/(Pixel*Frame) : 0.166
Stream size : 897 MiB (88%)
Color range : Limited
Color primaries : BT.709
Transfer characteristics : BT.709
Matrix coefficients : BT.709
Codec configuration box : avcC

Chyna Vice Documentary 2021

Audio
ID : 2
Format : AAC LC
Format/Info : Advanced Audio
Codec ID : mp4a-40-2
Duration : 1 h 29 min
Bit rate mode : Variable
Bit rate : 192 kb/s
Channel(s) : 2 channels
Channel layout : L R
Sampling rate : 48.0 kHz
Frame rate : 46.875 FPS (1024 SPF)
Compression mode : Lossy
Stream size : 123 MiB (12%)
Title : Stereo / Stereo
Language : English
Default : Yes
Alternate group : 1

Chyna Vice Documentary 2021

Complete name : Chyna.VICE.1080p.WEB.h264-timster.mkv
Format : Matroska
Format version : Version 4
File size : 2.94 GiB
Duration : 1 h 29 min
Overall bit rate : 4 681 kb/s

Video
ID : 1
Format : AVC
Format/Info : Advanced Video
Duration : 1 h 29 min
Bit rate : 4 553 kb/s
Width : 1 920 pixels
Height : 1 080 pixels
Display aspect ratio : 16:9
Frame rate mode : Variable
Frame rate : 23.976 FPS
Color space : YUV
Chroma subsampling : 4:2:0
Bit depth : 8 bits
Scan type : Progressive
Bits/(Pixel*Frame) : 0.092
Stream size : 2.86 GiB (97%)
Default : Yes
Forced : No

Chyna Vice Documentary 2021

Audio
ID : 2
Format : AAC LC
Format/Info : Advanced Audio
Codec ID : A_AAC-2
Duration : 1 h 29 min
Bit rate : 125 kb/s
Channel(s) : 2 channels
Channel layout : L R
Sampling rate : 48.0 kHz
Frame rate : 46.875 FPS
Compression mode : Lossy
Stream size : 80.5 MiB (3%)
Default : Yes
Forced : No

Complete name : Chyna.Documentary.2021.HDTV.x264-NWCHD.mp4
Format : MPEG-4
Format profile : Base Media
Codec ID : mp42
File size : 1.00 GiB
Duration : 1 h 29 min
Overall bit rate mode : Variable
Overall bit rate : 1 598 kb/s

Chyna Vice Documentary 2021

Video
ID : 1
Format : AVC
Format/Info : Advanced Video
Duration : 1 h 29 min
Bit rate : 1 400 kb/s
Width : 704 pixels
Height : 400 pixels
Display aspect ratio : 16:9
Frame rate mode : Constant
Frame rate : 29.970 (30000/1001) FPS
Color space : YUV
Chroma subsampling : 4:2:0
Bit depth : 8 bits
Scan type : Progressive
Bits/(Pixel*Frame) : 0.166
Stream size : 897 MiB (88%)
Color range : Limited
Color primaries : BT.709
Transfer characteristics : BT.709
Matrix coefficients : BT.709
Codec configuration box : avcC

Chyna Vice Documentary 2021

Audio
ID : 2
Format : AAC LC
Format/Info : Advanced Audio
Codec ID : mp4a-40-2
Duration : 1 h 29 min
Bit rate mode : Variable
Bit rate : 192 kb/s
Channel(s) : 2 channels
Channel layout : L R
Sampling rate : 48.0 kHz
Frame rate : 46.875 FPS (1024 SPF)
Compression mode : Lossy
Stream size : 123 MiB (12%)
Title : Stereo / Stereo
Language : English
Default : Yes
Alternate group : 1

Chyna Vice Documentary 2021

Complete name : Chyna.VICE.1080p.WEB.h264-timster.mkv
Format : Matroska
Format version : Version 4
File size : 2.94 GiB
Duration : 1 h 29 min
Overall bit rate : 4 681 kb/s

Video
ID : 1
Format : AVC
Format/Info : Advanced Video
Duration : 1 h 29 min
Bit rate : 4 553 kb/s
Width : 1 920 pixels
Height : 1 080 pixels
Display aspect ratio : 16:9
Frame rate mode : Variable
Frame rate : 23.976 FPS
Color space : YUV
Chroma subsampling : 4:2:0
Bit depth : 8 bits
Scan type : Progressive
Bits/(Pixel*Frame) : 0.092
Stream size : 2.86 GiB (97%)
Default : Yes
Forced : No

Chyna Vice Documentary 2021

Audio
ID : 2
Format : AAC LC
Format/Info : Advanced Audio
Codec ID : A_AAC-2
Duration : 1 h 29 min
Bit rate : 125 kb/s
Channel(s) : 2 channels
Channel layout : L R
Sampling rate : 48.0 kHz
Frame rate : 46.875 FPS
Compression mode : Lossy
Stream size : 80.5 MiB (3%)
Default : Yes
Forced : No

Complete name : Chyna.Documentary.2021.HDTV.x264-NWCHD.mp4
Format : MPEG-4
Format profile : Base Media
Codec ID : mp42
File size : 1.00 GiB
Duration : 1 h 29 min
Overall bit rate mode : Variable
Overall bit rate : 1 598 kb/s

Chyna Vice Documentary 2021

Video
ID : 1
Format : AVC
Format/Info : Advanced Video
Duration : 1 h 29 min
Bit rate : 1 400 kb/s
Width : 704 pixels
Height : 400 pixels
Display aspect ratio : 16:9
Frame rate mode : Constant
Frame rate : 29.970 (30000/1001) FPS
Color space : YUV
Chroma subsampling : 4:2:0
Bit depth : 8 bits
Scan type : Progressive
Bits/(Pixel*Frame) : 0.166
Stream size : 897 MiB (88%)
Color range : Limited
Color primaries : BT.709
Transfer characteristics : BT.709
Matrix coefficients : BT.709
Codec configuration box : avcC

Chyna Vice Documentary 2021

Audio
ID : 2
Format : AAC LC
Format/Info : Advanced Audio
Codec ID : mp4a-40-2
Duration : 1 h 29 min
Bit rate mode : Variable
Bit rate : 192 kb/s
Channel(s) : 2 channels
Channel layout : L R
Sampling rate : 48.0 kHz
Frame rate : 46.875 FPS (1024 SPF)
Compression mode : Lossy
Stream size : 123 MiB (12%)
Title : Stereo / Stereo
Language : English
Default : Yes
Alternate group : 1

Chyna Vice Documentary 2021

Complete name : Chyna.VICE.1080p.WEB.h264-timster.mkv
Format : Matroska
Format version : Version 4
File size : 2.94 GiB
Duration : 1 h 29 min
Overall bit rate : 4 681 kb/s

Video
ID : 1
Format : AVC
Format/Info : Advanced Video
Duration : 1 h 29 min
Bit rate : 4 553 kb/s
Width : 1 920 pixels
Height : 1 080 pixels
Display aspect ratio : 16:9
Frame rate mode : Variable
Frame rate : 23.976 FPS
Color space : YUV
Chroma subsampling : 4:2:0
Bit depth : 8 bits
Scan type : Progressive
Bits/(Pixel*Frame) : 0.092
Stream size : 2.86 GiB (97%)
Default : Yes
Forced : No

Chyna Vice Documentary 2021

Audio
ID : 2
Format : AAC LC
Format/Info : Advanced Audio
Codec ID : A_AAC-2
Duration : 1 h 29 min
Bit rate : 125 kb/s
Channel(s) : 2 channels
Channel layout : L R
Sampling rate : 48.0 kHz
Frame rate : 46.875 FPS
Compression mode : Lossy
Stream size : 80.5 MiB (3%)
Default : Yes
Forced : No

Complete name : Chyna.Documentary.2021.HDTV.x264-NWCHD.mp4
Format : MPEG-4
Format profile : Base Media
Codec ID : mp42
File size : 1.00 GiB
Duration : 1 h 29 min
Overall bit rate mode : Variable
Overall bit rate : 1 598 kb/s

Chyna Vice Documentary 2021

Video
ID : 1
Format : AVC
Format/Info : Advanced Video
Duration : 1 h 29 min
Bit rate : 1 400 kb/s
Width : 704 pixels
Height : 400 pixels
Display aspect ratio : 16:9
Frame rate mode : Constant
Frame rate : 29.970 (30000/1001) FPS
Color space : YUV
Chroma subsampling : 4:2:0
Bit depth : 8 bits
Scan type : Progressive
Bits/(Pixel*Frame) : 0.166
Stream size : 897 MiB (88%)
Color range : Limited
Color primaries : BT.709
Transfer characteristics : BT.709
Matrix coefficients : BT.709
Codec configuration box : avcC

Chyna Vice Documentary 2021

Audio
ID : 2
Format : AAC LC
Format/Info : Advanced Audio
Codec ID : mp4a-40-2
Duration : 1 h 29 min
Bit rate mode : Variable
Bit rate : 192 kb/s
Channel(s) : 2 channels
Channel layout : L R
Sampling rate : 48.0 kHz
Frame rate : 46.875 FPS (1024 SPF)
Compression mode : Lossy
Stream size : 123 MiB (12%)
Title : Stereo / Stereo
Language : English
Default : Yes
Alternate group : 1

Chyna Vice Documentary 2021

Complete name : Chyna.VICE.1080p.WEB.h264-timster.mkv
Format : Matroska
Format version : Version 4
File size : 2.94 GiB
Duration : 1 h 29 min
Overall bit rate : 4 681 kb/s

Video
ID : 1
Format : AVC
Format/Info : Advanced Video
Duration : 1 h 29 min
Bit rate : 4 553 kb/s
Width : 1 920 pixels
Height : 1 080 pixels
Display aspect ratio : 16:9
Frame rate mode : Variable
Frame rate : 23.976 FPS
Color space : YUV
Chroma subsampling : 4:2:0
Bit depth : 8 bits
Scan type : Progressive
Bits/(Pixel*Frame) : 0.092
Stream size : 2.86 GiB (97%)
Default : Yes
Forced : No

Chyna Vice Documentary 2021

Audio
ID : 2
Format : AAC LC
Format/Info : Advanced Audio
Codec ID : A_AAC-2
Duration : 1 h 29 min
Bit rate : 125 kb/s
Channel(s) : 2 channels
Channel layout : L R
Sampling rate : 48.0 kHz
Frame rate : 46.875 FPS
Compression mode : Lossy
Stream size : 80.5 MiB (3%)
Default : Yes
Forced : No

Complete name : Chyna.Documentary.2021.HDTV.x264-NWCHD.mp4
Format : MPEG-4
Format profile : Base Media
Codec ID : mp42
File size : 1.00 GiB
Duration : 1 h 29 min
Overall bit rate mode : Variable
Overall bit rate : 1 598 kb/s

Chyna Vice Documentary 2021

Video
ID : 1
Format : AVC
Format/Info : Advanced Video
Duration : 1 h 29 min
Bit rate : 1 400 kb/s
Width : 704 pixels
Height : 400 pixels
Display aspect ratio : 16:9
Frame rate mode : Constant
Frame rate : 29.970 (30000/1001) FPS
Color space : YUV
Chroma subsampling : 4:2:0
Bit depth : 8 bits
Scan type : Progressive
Bits/(Pixel*Frame) : 0.166
Stream size : 897 MiB (88%)
Color range : Limited
Color primaries : BT.709
Transfer characteristics : BT.709
Matrix coefficients : BT.709
Codec configuration box : avcC

Chyna Vice Documentary 2021

Audio
ID : 2
Format : AAC LC
Format/Info : Advanced Audio
Codec ID : mp4a-40-2
Duration : 1 h 29 min
Bit rate mode : Variable
Bit rate : 192 kb/s
Channel(s) : 2 channels
Channel layout : L R
Sampling rate : 48.0 kHz
Frame rate : 46.875 FPS (1024 SPF)
Compression mode : Lossy
Stream size : 123 MiB (12%)
Title : Stereo / Stereo
Language : English
Default : Yes
Alternate group : 1

Chyna Vice Documentary 2021

Complete name : Chyna.VICE.1080p.WEB.h264-timster.mkv
Format : Matroska
Format version : Version 4
File size : 2.94 GiB
Duration : 1 h 29 min
Overall bit rate : 4 681 kb/s

Video
ID : 1
Format : AVC
Format/Info : Advanced Video
Duration : 1 h 29 min
Bit rate : 4 553 kb/s
Width : 1 920 pixels
Height : 1 080 pixels
Display aspect ratio : 16:9
Frame rate mode : Variable
Frame rate : 23.976 FPS
Color space : YUV
Chroma subsampling : 4:2:0
Bit depth : 8 bits
Scan type : Progressive
Bits/(Pixel*Frame) : 0.092
Stream size : 2.86 GiB (97%)
Default : Yes
Forced : No

Chyna Vice Documentary 2021

Audio
ID : 2
Format : AAC LC
Format/Info : Advanced Audio
Codec ID : A_AAC-2
Duration : 1 h 29 min
Bit rate : 125 kb/s
Channel(s) : 2 channels
Channel layout : L R
Sampling rate : 48.0 kHz
Frame rate : 46.875 FPS
Compression mode : Lossy
Stream size : 80.5 MiB (3%)
Default : Yes
Forced : No

Complete name : Chyna.Documentary.2021.HDTV.x264-NWCHD.mp4
Format : MPEG-4
Format profile : Base Media
Codec ID : mp42
File size : 1.00 GiB
Duration : 1 h 29 min
Overall bit rate mode : Variable
Overall bit rate : 1 598 kb/s

Chyna Vice Documentary 2021

Video
ID : 1
Format : AVC
Format/Info : Advanced Video
Duration : 1 h 29 min
Bit rate : 1 400 kb/s
Width : 704 pixels
Height : 400 pixels
Display aspect ratio : 16:9
Frame rate mode : Constant
Frame rate : 29.970 (30000/1001) FPS
Color space : YUV
Chroma subsampling : 4:2:0
Bit depth : 8 bits
Scan type : Progressive
Bits/(Pixel*Frame) : 0.166
Stream size : 897 MiB (88%)
Color range : Limited
Color primaries : BT.709
Transfer characteristics : BT.709
Matrix coefficients : BT.709
Codec configuration box : avcC

Chyna Vice Documentary 2021

Audio
ID : 2
Format : AAC LC
Format/Info : Advanced Audio
Codec ID : mp4a-40-2
Duration : 1 h 29 min
Bit rate mode : Variable
Bit rate : 192 kb/s
Channel(s) : 2 channels
Channel layout : L R
Sampling rate : 48.0 kHz
Frame rate : 46.875 FPS (1024 SPF)
Compression mode : Lossy
Stream size : 123 MiB (12%)
Title : Stereo / Stereo
Language : English
Default : Yes
Alternate group : 1

Chyna Vice Documentary 2021

 

[collapse]

 

 

https://dx-tv.com/

Leave a Reply

Your email address will not be published. Required fields are marked *

This site uses Akismet to reduce spam. Learn how your comment data is processed.

Previous Post
WWE NXT UK live

WWE NXT UK 2021 06 17 1080p Online Free

Next Post
AEW Dynamite

AEW Friday Night Dynamite Free Live 18 June 2021