Chikara Silence In The Library 2017 1080p

Chikara Silence In The Library 2017 1080p

 

 

 

 

 

 

wwe

 

 

 

 

 

 

 

Complete name : Silence In The Library _ CHIKARA Pro.mp4
Format : MPEG-4
Format profile : Base Media
Codec ID : isom
File size : 4.52 GiB
Duration : 1h 56mn
Overall bit rate : 5 533 Kbps
Writing application : Lavf57.71.100

Video
ID : 1
Format : AVC
Format/Info : Advanced Video Codec
Codec ID : avc1
Codec ID/Info : Advanced Video Coding
Duration : 1h 56mn
Bit rate mode : Variable
Bit rate : 5 400 Kbps
Width : 1 920 pixels
Height : 1 080 pixels
Display aspect ratio : 16:9
Frame rate mode : Variable
Frame rate : 29.970 fps
Minimum frame rate : 6.814 fps
Maximum frame rate : 29.970 fps
Color space : YUV
Chroma subsampling : 4:2:0
Bit depth : 8 bits
Scan type : Progressive
Bits/(Pixel*Frame) : 0.087
Stream size : 4.38 GiB (97%)
Writing library : x264 core 148

Audio
ID : 2
Format : AAC
Format/Info : Advanced Audio Codec
Format profile : LC
Codec ID : 40
Duration : 1h 56mn
Bit rate mode : Variable
Bit rate : 160 Kbps
Maximum bit rate : 167 Kbps
Channel(s) : 2 channels
Channel positions : Front: L R
Sampling rate : 44.1 KHz
Compression mode : Lossy
Stream size : 134 MiB (3%)

 

 

 

 

 

 

Chikara Silence In The Library 2017 1080p

 

 

 

Watch online

 

 

Waiting finish converting video

 

 

Server 1

 

 

 

 

 

 

 

 

 

 

 

 

 

 

 

 

 

 

 

 

 

 

Server 2

 

 

 

 

 

 

 

 


 

 

 

 

 

 

Uploaded By Site DX-TV.com

 

 

 

open rar file to see this password

 

 

 

 

The password is : DX-TV.com

 

 

 

 

 

 

 

Uploaded.net + rapidgator.net

 

 

 

 

 

 

 

 

http://shrt10.com/Q1FN2pN

 

 

 

 

http://shrt10.com/32ZnqlLq

 

 

 

 

 

 

 

 

Chikara Silence In The Library 2017 1080p

 67 total views,  3 views today

%d bloggers like this: