CHIKARA 2018 04 28 Revenge of the Lawn Gnomes WEB NCMP /720p Watch / Download

CHIKARA 2018 04 28 Revenge of the Lawn Gnomes WEB NCMP /720p Watch / Download

 

 

 

 


 

dx-tv.com

 

 

 

 

Complete name : CHIKARA.2018.04.28.Revenge.of.the.Lawn.Gnomes.WEB.h264-NCMP.mp4
Format : MPEG-4
Format profile : Base Media
Codec ID : isom
File size : 1 016 MiB
Duration : 2h 24mn
Overall bit rate : 985 Kbps

Video
ID : 2
Format : AVC
Format/Info : Advanced Video Codec
Codec ID : avc1
Codec ID/Info : Advanced Video Coding
Duration : 2h 24mn
Bit rate mode : Variable
Bit rate : 849 Kbps
Width : 854 pixels
Height : 480 pixels
Display aspect ratio : 16:9
Frame rate mode : Variable
Frame rate : 29.970 fps
Minimum frame rate : 14.925 fps
Maximum frame rate : 30.303 fps
Color space : YUV
Chroma subsampling : 4:2:0
Bit depth : 8 bits
Scan type : Progressive
Bits/(Pixel*Frame) : 0.069
Stream size : 875 MiB (86%)

Audio
ID : 1
Format : AAC
Format/Info : Advanced Audio Codec
Format profile : LC
Codec ID : 40
Duration : 2h 24mn
Bit rate mode : Constant
Bit rate : 128 Kbps
Channel(s) : 2 channels
Channel positions : Front: L R
Sampling rate : 48.0 KHz
Compression mode : Lossy
Stream size : 132 MiB (13%)

 

 

 

 

 

Name of the event: CHIKARA Revenge Of The Lawn Gnomes
Date: 28.04.2018
Promotion: CHIKARA
Type: Event
Location: Philadelphia, Pennsylvania, USA
Arena: The Wrestle Factory

Tag Team Match
The Beach Bums (Freddy Flamingo IV & TJ Crawford) vs. Xyberhawx2000 (Nytehawk & Razerhawk)

Singles Match
Crossbones vs. Kobald

Six Man Tag Team Match
Clothesline Curtis, Dropkick Donny & Waistlock Wade vs. The Proteus Wheel (Callux The
Castigator, Frantik & Volgar)

Singles Match
Officer Warren Barksdale vs. Tony Deppen

Singles Match
Fire Ant vs. Solo Darling

Eight Man Tag Team Match
Green Ant, Los Ice Creams (El Hijo del Ice Cream & Ice Cream Jr.) & Thief Ant vs. The Creatures Of The Deep (Cajun Crawdad, Hermit Crab, Merlok & Oceanea)

Singles Match
Ophidian vs. Puma King

CHIKARA Campeonatos de Parejas Best Two Out Of Three Falls Match
The Closers (Rick Roland & Sloan Caprice) (c) vs. The Throwbacks (Dasher Hatfield & Mark Angelosetti)

 

 

 

 

CHIKARA 2018 04 28 Revenge of the Lawn Gnomes WEB NCMP /720p Watch / Download

 

 

 

Watch online

 

 

Waiting finish converting video

 

 

Server 1

 

 

 

 

 

 

 

 

 

 

 

 

 

Server 2

 

 

 

 

 

 


 

 

 

 

 

Uploaded By Site DX-TV.com

 

 

 

open rar file to see this password

 

 

 

 

The password is : DX-TV.com

 

 

 

 

400p+720p

 

 

 

 

 

Uploaded.net + rapidgator.net

 

 

 

 

 

 
http://shrt10.com/zNDX
 

 

 

http://shrt10.com/iNTz3m
 

 

 

http://shrt10.com/tc7VV
 

 

 

http://shrt10.com/TMmTgd
 

 

 

 

 

 

 

 

CHIKARA 2018 04 28 Revenge of the Lawn Gnomes WEB NCMP /720p Watch / Download

Author: snaw90

Leave a Reply

Your email address will not be published. Required fields are marked *