Cage Warriors 93 WEB DL /720p Watch / Download

Cage Warriors 93 WEB DL /720p Watch / Download

 

 

 

 

 

 

 

 

 

dx-tv.com

 

 

 

 

 
Complete name : Cage.Warriors.93.WEB-DL.mp4
Format : MPEG-4
Format profile : Base Media
Codec ID : isom
File size : 1.70 GiB
Duration : 2h 40mn
Overall bit rate : 1 520 Kbps
Writing application : Lavf56.40.101

Video
ID : 1
Format : AVC
Format/Info : Advanced Video Codec
Codec ID : avc1
Codec ID/Info : Advanced Video Coding
Duration : 2h 40mn
Bit rate mode : Variable
Bit rate : 1 433 Kbps
Width : 960 pixels
Height : 540 pixels
Display aspect ratio : 16:9
Frame rate mode : Variable
Frame rate : 29.946 fps
Original frame rate : 29.970 fps
Minimum frame rate : 0.131 fps
Maximum frame rate : 29.970 fps
Color space : YUV
Chroma subsampling : 4:2:0
Bit depth : 8 bits
Scan type : Progressive
Bits/(Pixel*Frame) : 0.092
Stream size : 1.60 GiB (94%)

Audio
ID : 2
Format : AAC
Format/Info : Advanced Audio Codec
Format profile : LC
Codec ID : 40
Duration : 2h 40mn
Bit rate mode : Variable
Bit rate : 77.5 Kbps
Maximum bit rate : 82.7 Kbps
Channel(s) : 2 channels
Channel positions : Front: L R
Sampling rate : 44.1 KHz
Compression mode : Lossy
Stream size : 88.9 MiB (5%)

 

 

 

 

 

 

 

 
[EVENT]: Cage.Warriors.93.720p.WEB DL.mp4
[SIZE]: 4.90 GB
[SOURCE]: Fight Pass
[CONTAINER]: mp4
[RESOLUTION]: 1280 x 720 @ 29.970 FPS
[VIDEO]: H264 @ 4240 Kbps
[AUDIO]: AAC @ 125 kbps
[Length]: 02:40:18
[Language]: English
 

 

 

 

 

 

 

 

 

 

 

Cage Warriors 93 WEB DL /720p Watch / Download

 

 

 

 

Watch online

 

 

Waiting finish converting video

 

 

Server 1

 

 

 

 

 

 

 

 

 

 

 

 

 

 

 

Server 2

 

 

 

 

 

 

 


 

 

 

 

 

Uploaded By Site DX-TV.com

 

 

 

open rar file to see this password

 

 

 

 

The password is : DX-TV.com

 

 

 

 

400p+720p

 

 

 

 

 

Uploaded.net + rapidgator.net

 

 

 

 

 

http://shrt10.com/Lo4Y0k

 

 

 

http://shrt10.com/T4p1

 

 

 

http://shrt10.com/LxpbFd

 

 

 

 

 

 

http://shrt10.com/I4OSiA

 

 

 

 

 

http://shrt10.com/rD02obMd

 

 

 

 

http://shrt10.com/dRlZva

 

 

 

 

 

Cage Warriors 93 WEB DL /720p Watch / Download