Cage Warriors 113 720p

Watch Cage Warriors 113 720p DX-TV

 

Cage

 WWE RAW

 

 

Cage Warriors 113 720p

 

 

Complete name : Cage.Warriors.113.720p.mp4
Format : MPEG-4
Format profile : Base Media
Codec ID : isom
File size : 3.58 GiB
Duration : 2 h 27 min
Overall bit rate mode : Variable
Overall bit rate : 3 467 kb/s
Writing application : Lavf58.12.100

Video
ID : 1
Format : AVC
Duration : 2 h 27 min
Bit rate : 3 372 kb/s
Width : 1 280 pixels
Height : 720 pixels
Display aspect ratio : 16:9
Frame rate mode : Constant
Frame rate : 30.000 FPS
Color space : YUV
Chroma subsampling : 4:2:0
Bit depth : 8 bits
Scan type : Progressive
Bits/(Pixel*Frame) : 0.122
Stream size : 3.44 GiB (96%)
Audio
ID : 2
Format : AAC LC
Format/Info : Cage
Codec ID : mp4a-40-2
Duration : 2 h 27 min
Bit rate mode : Cage
Bit rate : 129 kb/s
Maximum bit rate : 161 kb/s
Channel(s) : 2 channels
Channel layout : L R
Sampling rate : 48.0 kHz
Frame rate : 46.875 FPS (1024 SPF)
Compression mode : Lossy
Stream size : 136 MiB (4%)
Default : Cage
Alternate group : 1

 

 

 

Watch online

 

 

Server 1

 

 

 

 

watch now

 

 

 

 

Server 2

 

 

 

watch now

 

 

 

Cage Warriors 113 720p

 

 

Uploaded By Site DX-TV.com

 

 

Download with Free LinksĀ 

 

 

1fichier.com

https://shrt10.com/CmIrXvHo
https://shrt10.com/kwo3VIH
https://shrt10.com/CwpQvmj

 

DDL.to

https://shrt10.com/7FIb5PsuQ
https://shrt10.com/UqMphYUs
https://shrt10.com/Ph9bHe

 

rockfile.co

https://shrt10.com/bEyIHc
https://shrt10.com/nOoLqvK9
https://shrt10.com/nQtzB

 

 

Download with premium account LinksĀ 

 

 

Keep2Share

 

 

mixdrop.co

 

 

alfafile.net

 

 

nitroflare.com

 

 

rapidgator.net

 

 

uploadgig.com

 

 

 

dx-tv.com

 

urlfree.net

 105 total views,  1 views today

%d bloggers like this: