Brave CF 23 Single fights 720p

Brave CF 23 Single fights 720p

 

Name: Brave CF 23(Single fights) 720p
Description:

Format : MPEG-4
Format profile : Base Media
Codec ID : isom (isom/iso2/avc1/mp41)
Overall bit rate mode : Variable
Overall bit rate : 2 000 kb/s
Writing application : Lavf58.20.100

Video
ID : 1
Format : AVC
Format/Info : Advanced Video Codec
Format profile : High@L3.1
Format settings : CABAC / 4 Ref Frames
Format settings, CABAC : Yes
Format settings, ReFrames : 4 frames
Format settings, GOP : M=3, N=25
Codec ID : avc1
Codec ID/Info : Advanced Video Coding
Bit rate mode : Variable
Bit rate : 1 800 kb/s
Width : 1 280 pixels
Height : 720 pixels
Display aspect ratio : 16:9
Frame rate mode : Constant
Frame rate : 25.000 FPS
Color space : YUV
Chroma subsampling : 4:2:0
Bit depth : 8 bits
Scan type : Progressive
Bits/(Pixel*Frame) : 0.078
Stream size : 181 MiB (90%)

Audio
ID : 2
Format : AAC
Format/Info : Advanced Audio Codec
Format profile : LC
Codec ID : mp4a-40-2
Duration : 14 min 1 s
Duration_LastFrame : -19 ms
Bit rate mode : Constant
Bit rate : 192 kb/s
Channel(s) : 2 channels
Channel positions : Front: L R
Sampling rate : 44.1 kHz
Frame rate : 43.066 FPS (1024 SPF)
Compression mode : Lossy
Stream size : 19.3 MiB (10%)
Default : Yes
Alternate group : 1

 


1fichier
1fichier.com/?qey9s78bzxhsm03c92xc

anonfile
anonfile.com/faV9vdm5n2

dl.free.fr
dl.free.fr/gPDAiZZ0R

file.bz
file.bz/m8b0wam3n4

filerio
filerio.in/6p08mum6hw5f

filescdn
filescdn.net/o3uen3mqxstk

multiup
multiup.org/download/1042642e67c483d801824b6463dc8f96

rapidgator
rapidgator.net/file/ae48613edab7a3f6a576d88f0ea58f80

turbobit
turbobit.net/3lgi4gi51fns.html

uploadgig
uploadgig.com/file/download/d80303B6b5fe1e78