Boxing Wilder vs Fury 2 2020 02 22 PPV 540p

Watch Boxing Wilder vs Fury 2 2020 02 22 PPV 540p DX-TV

 

 

Wilder vs Fury

 

 

 Boxing Wilder

 

 

Boxing Wilder vs Fury 2 2020 02 22 PPV 540p

 

 

Complete name : Boxing.2020.02.22.Wilder.vs.Fury.2.PPV.540p.mp4
Format : MPEG-4
Format profile : Base Media
Codec ID : mp42 (mp42)
File size : 3.88 GiB
Duration : 3 h 53 min
Overall bit rate : 2 378 kb/s

Video
ID : 1
Format : AVC
Duration : 3 h 53 min
Bit rate : 2 149 kb/s
Width : 960 pixels
Height : 540 pixels
Display aspect ratio : 16:9
Frame rate mode : Boxing Wilder
Frame rate : 60.000 FPS
Color space : YUV
Chroma subsampling : 4:2:0
Bit depth : 8 bits
Scan type : Progressive
Bits/(Pixel*Frame) : 0.069
Stream size : 3.50 GiB (90%)
Language : English
Codec configuration box : avcC

Audio
ID : 2
Format : AAC LC
Format/Info : Boxing 
Codec ID : mp4a-40-2
Duration : 3 h 53 min
Bit rate mode : Constant
Bit rate : 218 kb/s
Channel(s) : 2 channels
Channel layout : L R
Sampling rate : 48.0 kHz
Frame rate : 46.875 FPS (1024 SPF)
Compression mode : Lossy
Stream size : 363 MiB (9%)
Title : Stereo
Language : English
Default : Yes
Alternate Wilder vs Fury

 

 

 

Watch online

 

Server 1

 

 

 

 

watch now

 

 

Boxing Wilder vs Fury 2 2020 02 22 PPV 540p

 

 

Uploaded By Site DX-TV.com

 

 

Download with premium account Links 

 

 

Keep2Share

 

 

alfafile.net

 

 

nitroflare.com

 

 

rapidgator.net

 

 

uploadgig.com

 

 

 

dx-tv.com

 

Leave a Reply

Your email address will not be published. Required fields are marked *

This site uses Akismet to reduce spam. Learn how your comment data is processed.

%d bloggers like this: