Boxing Jake Paul vs Tyron Woodley PPV 1080p Online Free

Boxing Jake Paul vs Tyron Woodley PPV 1080p/ 720p / 540p Online Free Replay DX-TV

Boxing Jake Paul vs Tyron Woodley

 Boxing Jake Paul vs Tyron Woodley

 

 

 

Download Links with premium High Speed

Dopapk

 

 

Show Links

 

 

https://shrt10.com/RRTeleE7P
https://shrt10.com/HY621oaSD

https://shrt10.com/yHczP

[collapse]

 

 

 

 

Nitroflare

 

 

Show Links

 

 

https://shrt10.com/CFUH81
https://shrt10.com/826uCi2m

 

https://shrt10.com/ttNDxBQY

[collapse]

 

 

Rapidgator

 

 

Show Links

 

 

https://shrt10.com/sHk1hV
https://shrt10.com/ezaFh

 

https://shrt10.com/x7nG1i

[collapse]

 

 

 

Uploaded
 

Show Links

 

 

 

 

https://shrt10.com/zpyVOaJM
https://shrt10.com/fvoybf4

 

 

[collapse]

 

 

 

 

 

Watch online

 

Server 1

 

 

 

 

watch now

 

 

 

 

Server-2

 

 

 

 

watch now

 

 

 

|Server-3

 

 

 

 

watch now

 

 

Uploaded By Site DX-TV.com

 

Free PBC On FOX 22 08 2020 720p Online

Show Info This Show

Boxing Jake Paul vs Tyron Woodley

 

Complete name : Jake.Paul.vs.Tyron.Woodley.PPV.29.Aug.2021. 540p By DX-TV.com.mp4
Format : MPEG-4
Format profile : Base Media
Codec ID : isom
File size : 4.45 GiB
Duration : 4 h 31 min
Overall bit rate mode : Variable
Overall bit rate : 2 342 kb/s

Video
ID : 1
Format : AVC
Duration : 4 h 31 min
Bit rate : 2 203 kb/s
Width : 960 pixels
Height : 540 pixels
Display aspect ratio : 16:9
Frame rate mode : Constant
Frame rate : 30.000 FPS
Color space : YUV
Chroma subsampling : 4:2:0
Bit depth : 8 bits
Scan type : Progressive
Bits/(Pixel*Frame) : 0.142
Stream size : 4.18 GiB (94%)
Color range : Full
Codec configuration box : avc

Boxing Jake Paul vs Tyron Woodley

Audio
ID : 2
Format : AAC LC
Format/Info : Advanced Audio
Codec ID : mp4a-40-2
Duration : 4 h 31 min
Bit rate mode : Variable
Bit rate : 128 kb/s
Maximum bit rate : 4 161 Mb/s
Channel(s) : 2 channels
Channel layout : L R
Sampling rate : 48.0 kHz
Frame rate : 46.875 FPS (1024 SPF)
Compression mode : Lossy
Stream size : 250 MiB (5%)
Default : Yes
Alternate group : 1

Complete name : Jake.Paul.vs.Tyron.Woodley.PPV.29.Aug.2021. By DX-TV.com.mp4
Format : MPEG-4
Format profile : Base Media
Codec ID : isom
File size : 2.00 GiB
Duration : 4 h 32 min
Overall bit rate mode : Variable
Overall bit rate : 1 053 kb/s

Boxing Jake Paul vs Tyron Woodley

Video
ID : 1
Format : AVC
Format/Info : Advanced Video
Duration : 4 h 32 min
Bit rate : 915 kb/s
Width : 710 pixels
Height : 400 pixels
Display aspect ratio : 16:9
Original display aspect rat : 16:9
Frame rate mode : Constant
Frame rate : 30.000 FPS
Color space : YUV
Chroma subsampling : 4:2:0
Bit depth : 8 bits
Scan type : Progressive
Bits/(Pixel*Frame) : 0.107
Stream size : 1.74 GiB (87%)
Color range : Full
Codec configuration box : avcC

Audio
ID : 2
Format : AAC LC
Format/Info : Advanced Audio
Codec ID : mp4a-40-2
Duration : 4 h 32 min
Bit rate mode : Variable
Bit rate : 128 kb/s
Maximum bit rate : 4 161 Mb/s
Channel(s) : 2 channels
Channel layout : L R
Sampling rate : 48.0 kHz
Frame rate : 46.875 FPS (1024 SPF)
Compression mode : Lossy
Stream size : 250 MiB (12%)
Default : Yes
Alternate group : 1

Boxing Jake Paul vs Tyron Woodley

Complete name : 2021-08-29 Jake Paul vs Tyron Woodley PPV.mkv
Format : Matroska
Format version : Version 4
File size : 7.76 GiB
Duration : 4 h 25 min
Overall bit rate : 4 190 kb/s

Video
ID : 1
Format : AVC
Codec ID : V_MPEG4/ISO/AVC
Duration : 4 h 25 min
Width : 1 920 pixels
Height : 1 080 pixels
Display aspect ratio : 16:9
Frame rate mode : Constant
Frame rate : 29.970 (30000/1001) FPS
Color space : YUV
Chroma subsampling : 4:2:0
Bit depth : 8 bits
Scan type : Progressive
Default : Yes
Forced : No

Boxing Jake Paul vs Tyron Woodley

Audio
ID : 2
Format : AAC LC
Codec ID : A_AAC-2
Duration : 4 h 25 min
Channel(s) : 2 channels
Channel layout : L R
Sampling rate : 48.0 kHz
Frame rate : 46.875 FPS (1024 SPF)
Compression mode : Lossy
Delay relative to video : -64 ms
Default : Yes
Forced : No

Boxing Jake Paul vs Tyron Woodley

Complete name : 2021-08-29 Jake Paul vs Tyron Woodley PPV.mkv
Format : Matroska
Format version : Version 4
File size : 7.76 GiB
Duration : 4 h 25 min
Overall bit rate : 4 190 kb/s

Video
ID : 1
Format : AVC
Codec ID : V_MPEG4/ISO/AVC
Duration : 4 h 25 min
Width : 1 920 pixels
Height : 1 080 pixels
Display aspect ratio : 16:9
Frame rate mode : Constant
Frame rate : 29.970 (30000/1001) FPS
Color space : YUV
Chroma subsampling : 4:2:0
Bit depth : 8 bits
Scan type : Progressive
Default : Yes
Forced : No

Boxing Jake Paul vs Tyron Woodley

Audio
ID : 2
Format : AAC LC
Codec ID : A_AAC-2
Duration : 4 h 25 min
Channel(s) : 2 channels
Channel layout : L R
Sampling rate : 48.0 kHz
Frame rate : 46.875 FPS (1024 SPF)
Compression mode : Lossy
Delay relative to video : -64 ms
Default : Yes
Forced : No

Boxing Jake Paul vs Tyron Woodley

Complete name : 2021-08-29 Jake Paul vs Tyron Woodley PPV.mkv
Format : Matroska
Format version : Version 4
File size : 7.76 GiB
Duration : 4 h 25 min
Overall bit rate : 4 190 kb/s

Video
ID : 1
Format : AVC
Codec ID : V_MPEG4/ISO/AVC
Duration : 4 h 25 min
Width : 1 920 pixels
Height : 1 080 pixels
Display aspect ratio : 16:9
Frame rate mode : Constant
Frame rate : 29.970 (30000/1001) FPS
Color space : YUV
Chroma subsampling : 4:2:0
Bit depth : 8 bits
Scan type : Progressive
Default : Yes
Forced : No

Boxing Jake Paul vs Tyron Woodley

Audio
ID : 2
Format : AAC LC
Codec ID : A_AAC-2
Duration : 4 h 25 min
Channel(s) : 2 channels
Channel layout : L R
Sampling rate : 48.0 kHz
Frame rate : 46.875 FPS (1024 SPF)
Compression mode : Lossy
Delay relative to video : -64 ms
Default : Yes
Forced : No

Boxing Jake Paul vs Tyron Woodley

 

[collapse]

 

 

https://dx-tv.com/

Leave a Reply

Your email address will not be published. Required fields are marked *

This site uses Akismet to reduce spam. Learn how your comment data is processed.