Boxing 2019 04 05 ShoBox The New Generation 720p WEB-DL-MBC
blank
blank
blank

– More Boxing Content – 


Format                                   : Matroska
Format version                           : Version 4
File size                                : 4.29 GiB
Duration                                 : 2 h 17 min
Overall bit rate                         : 4 483 kb/s
Writing application                      : Lavf58.19.102
Writing library                          : Lavf58.19.102
ErrorDetectionType                       : Per level 1

Video
ID                                       : 1
Format                                   : AVC
Format/Info                              : Advanced Video Codec
Format profile                           : High@L4.1
Format settings                          : CABAC / 4 Ref Frames
Format settings, CABAC                   : Yes
Format settings, RefFrames               : 4 frames
Codec ID                                 : V_MPEG4/ISO/AVC
Duration                                 : 2 h 17 min
Bit rate mode                            : Constant
Bit rate                                 : 4 372 kb/s
Width                                    : 1 280 pixels
Height                                   : 720 pixels
Display aspect ratio                     : 16:9
Frame rate mode                          : Variable
Frame rate                               : 61.186 FPS
Original frame rate                      : 59.940 (60000/1001) FPS
Color space                              : YUV
Chroma subsampling                       : 4:2:0
Bit depth                                : 8 bits
Scan type                                : Progressive
Bits/(Pixel*Frame)                       : 0.078
Stream size                              : 4.26 GiB (99%)
Default                                  : Yes
Forced                                   : No

Audio
ID                                       : 2
Format                                   : AAC LC
Format/Info                              : Advanced Audio Codec Low Complexity
Codec ID                                 : A_AAC-2
Duration                                 : 2 h 17 min
Bit rate                                 : 125 kb/s
Channel(s)                               : 2 channels
Channel layout                           : L R
Sampling rate                            : 48.0 kHz
Frame rate                               : 46.875 FPS (1024 SPF)
Compression mode                         : Lossy
Delay relative to video                  : -2 s 111 ms
Stream size                              : 125 MiB (3%)
Default                                  : Yes
Forced                                   : No

ONE LINK DOWNLOAD

https://1fichier.com/?cmk04f9s844req9rz881

https://anonfile.com/Pej8y2Zbm9

http://dl.free.fr/hJVnFJO58

https://filerio.in/9grmtw05d6c7

https://filescdn.net/nqawl3tcnqbu

https://openload.co/f/T7sEK2hvxO4

https://rapidgator.net/file/ebc81fcedd5bd784b82c3dfd125a2fc0

https://uploadgig.com/file/download/4c6590dF32244E73

https://uptobox.com/vu2a2tms591y