BLP Threat Level Noon 2020 10 11 Full Show Online

Watch BLP Threat Level Noon 2020 10 11 Full Show Online DX-TV

 

BLP Threat Level Noon 2020

 

 BLP Threat Level Noon 2020

 

BLP Threat Level Noon 2020 10 11 Full Show Online

 

Name of the event: BLP Threat Level Noon
Date: 11.10.2020
Promotion: Black Label Pro
Type: Pay Per View
Location: Indianapolis, Indiana, USA
Arena: Marion County Fairgrounds
Broadcast type: Live
Broadcast date: 11.10.2020
TV station/network: FITE TV

BLP Threat Level Noon 2020

:::: Not recommended yet. ::::
BLP Midwest Title Match
Alex Shelley (c) defeats Anthony Henry (12:35)
:::: Not recommended yet. ::::
Singles Match
Josh Alexander defeats Leyla Hirsch (10:22)
:::: Not eligible for the matchguide: at least one worker in the match does not have a profile. ::::
Tag Team Match
Stunt Doubles (Logan Stunt & Marko Stunt) defeat Gaytanic Panic (Danhausen & Effy) (8:30)
:::: Not recommended yet. ::::
Seven Way Match
AJ Gray defeats Big Beef and Colin Delaney and Jody

Threat and Joshua Bishop and Levi Everett and Matthew Justice (8:28)
:::: Not recommended yet. ::::
Singles Match
Killer Kelly defeats Billie Starkz (11:13)
:::: Not recommended yet. ::::

BLP Threat Level Noon 2020

Tag Team Match
Top Flight (Air Wolf & Angel Dorado) defeat Erick Stevens & Tom Lawlor (11:30)
:::: Not recommended yet. ::::
BLP Tag Team Title Match
Violence Is Forever (Dominic Garrini & Kevin Ku) defeat Besties In

The World (Davey Vega & Mat Fitchett) (c) (13:55) – TITLE CHANGE !!!
:::: Not recommended yet. ::::
BLP Title #1 Contender’s Four Way Match
Blake Christian defeats Alex Zayne and Ethan Page and JD Drake (10:18)
:::: Not recommended yet. ::::
BLP Title Match
Jake Something (c) defeats Warhorse (14:27)

 

Threat Level Noon 2020

Complete name : BLP Threat Level Noon 2020 10 11 720p WEB H264 DX-TV.com.mp4
Format : MPEG-4
Format profile : Base Media
Codec ID : isom
File size : 1.55 GiB
Duration : 1 h 55 min
Overall bit rate mode : Variable
Overall bit rate : 1 925 kb/s

Threat Level Noon 2020

Video
ID : 1
Format : AVC
Duration : 1 h 55 min
Bit rate : 1 825 kb/s
Width : 1 280 pixels
Height : 720 pixels
Display aspect ratio : 16:9
Frame rate mode : Variable
Frame rate : 29.970 FPS
Minimum frame rate : 1.361 FPS
Maximum frame rate : 30.303 FPS
Color space : YUV
Chroma subsampling : 4:2:0
Bit depth : 8 bits
Scan type : Progressive
Bits/(Pixel*Frame) : 0.066
Stream size : 1.47 GiB (95%)
Codec configuration box : avcC

Threat Level Noon 2020

Audio
ID : 2
Format : AAC LC
Format/Info : Advanced Audio
Codec ID : mp4a-40-2
Duration : 1 h 55 min
Bit rate mode : Variable
Bit rate : 91.2 kb/s
Maximum bit rate : 97.5 kb/s
Channel(s) : 2 channels
Channel layout : L R
Sampling rate : 48.0 kHz
Frame rate : 46.875 FPS (1024 SPF)
Compression mode : Lossy
Stream size : 75.1 MiB (5%)
Default : Yes
Alternate group : 1

 

 

 

Threat Level Noon 2020 10 11 Full Show Online

 

 

Watch online

 

 

 

Server 1

 

 

 

 

BLP Threat Level Noon 2020

 

 

 

 

Server-2

 

 

 

watch now

 

 

 

 

Server-3

 

 

 

BLP Threat Level Noon 2020

 

 

 

 

Uploaded By Site DX-TV.com

 

 

 

Download Links with premium High Speed   

 

 

dropapk.to

 

 

 

nitroflare.com

 

 

 

rapidgator.net

 

 

 

uploaded.net

 

 

 

uploadgig.com

 

 

 

 

 

dx-tv.com

 

urlfree.net

Leave a Reply

Your email address will not be published. Required fields are marked *

This site uses Akismet to reduce spam. Learn how your comment data is processed.