BKFC Fight Night Montana 2021 10 09 Replay

BKFC Fight Night Montana 2021 10 09 720p Full Show Replay DX-TV

BKFC Fight Night Montana

 BKFC Fight Night Montana

 

 

 

Download Links with premium High Speed


Dopapk

 

 

Show Links

 

 

http://shrt10.com/hZK1S

 

 

 

 

 

Nitroflare

 

 

Show Links

 

 

http://shrt10.com/PdZX26
http://shrt10.com/arGjn4

 

 

 

 

Rapidgator

 

 

Show Links

 

 

http://shrt10.com/OJEssR
http://shrt10.com/sdbC7

 

 

 

 

 

Uploaded
 

 

Show Links

 

 

http://shrt10.com/TOkwsUuS
http://shrt10.com/RhcgHCO

 

 

 

 

 

 

Watch online

 

Server 1

 

 

 

 

BKFC Fight Night Montana

 

 

 

 

Server-2

 

 

 

 

BKFC Fight Night Montana

 

 

 

|Server-3

 

 

 

 

watch now

 

 

Uploaded By Site DX-TV.com

 

 

Open Info Show

 

 

Complete name : Bkfc.Fight.Night.Montana.2021 10 09 480p DX-TV.com.mp4
Format : MPEG-4
Format profile : Base Media / Version 2
Codec ID : mp42
File size : 1.63 GiB
Duration : 3 h 3 min
Overall bit rate : 1 272 kb/s

BKFC Fight Night Montana

Video
ID : 1
Format : AVC
Duration : 3 h 3 min
Bit rate : 1 102 kb/s
Width : 720 pixels
Height : 480 pixels
Display aspect ratio : 16:9
Original display aspect rat : 16:9
Frame rate mode : Constant
Frame rate : 29.970 (30000/1001) FPS
Standard : NTSC
Color space : YUV
Chroma subsampling : 4:2:0
Bit depth : 8 bits
Scan type : Progressive
Bits/(Pixel*Frame) : 0.106
Stream size : 1.41 GiB (87%)
Color range : Limited
Color primaries : BT.709
Transfer characteristics : BT.709
Matrix coefficients : BT.709
Codec configuration box : avc

BKFC Fight Night Montana

Audio
ID : 2
Format : AAC LC
Format/Info : Complexity
Codec ID : mp4a-40-2
Duration : 3 h 3 min
Bit rate mode : Constant
Bit rate : 161 kb/s
Channel(s) : 2 channels
Channel layout : L R
Sampling rate : 48.0 kHz
Frame rate : 46.875 FPS (1024 SPF)
Compression mode : Lossy
Stream size : 211 MiB (13%)
Title : Stereo
Default : Yes
Alternate group : 1

Complete name : BKFC.Fight.Night.Montana.20211009.720p.WEB.mp4
Format : MPEG-4
Format profile : Base Media
Codec ID : isom
File size : 3.38 GiB
Duration : 3 h 3 min
Overall bit rate mode : Constant
Overall bit rate : 2 633 kb/s

Video
ID : 1
Format : AVC
Duration : 3 h 3 min
Bit rate mode : Constant
Bit rate : 2 500 kb/s
Width : 1 280 pixels
Height : 720 pixels
Display aspect ratio : 16:9
Frame rate mode : Constant
Frame rate : 29.970 (30000/1001) FPS
Standard : NTSC
Color space : YUV
Chroma subsampling : 4:2:0
Bit depth : 8 bits
Scan type : Progressive
Bits/(Pixel*Frame) : 0.091
Stream size : 3.20 GiB (95%)
Color range : Limited
Color primaries : BT.709
Transfer characteristics : BT.709
Matrix coefficients : BT.709
Codec configuration box : avc

BKFC Fight Night Montana

Audio
ID : 2
Format : AAC LC
Codec ID : mp4a-40-2
Duration : 3 h 3 min
Bit rate mode : Constant
Bit rate : 125 kb/s
Channel(s) : 2 channels
Channel layout : L R
Sampling rate : 48.0 kHz
Frame rate : 46.875 FPS (1024 SPF)
Compression mode : Lossy
Stream size : 165 MiB (5%)
Default : Yes
Alternate group : 1

 

 

https://dx-tv.com/

 

 

 

 

 

You May Also Like

Leave a Reply

Your email address will not be published. Required fields are marked *

This site uses Akismet to reduce spam. Learn how your comment data is processed.