BKFC 20 MMA 720p Online Free Replay

BKFC 20 MMA 720p Online Free Replay DX-TV

BKFC 20 MMA

 BKFC 20 MMA

 

 

 

Download Links with premium High Speed
 

 


 

Dopapk

 

 

Show Links

 

 

http://shrt10.com/ke70mRU
http://shrt10.com/e7hMYWm96

 

[collapse]

 

 

 

 

Nitroflare

 

 

Show Links

 

 

http://shrt10.com/mXIpUuc
http://shrt10.com/DnIs9D

 

 

[collapse]

 

 

Rapidgator

 

 

Show Links

 

 

http://shrt10.com/nLgoKUh
http://shrt10.com/nt97A1

 

 

[collapse]

 

 

 

Uploaded
 

 

Show Links

 

 

http://shrt10.com/bijoFEm3

 

 

[collapse]

 

 

 

 

 

Watch online

 

Server 1

 

 

 

 

BKFC 20 MMA

 

 

 

 

Server-2

 

 

 

 

watch now

 

 

 

|Server-3

 

 

 

 

watch now

 

 

Uploaded By Site DX-TV.com

 

 

Show Info This Show

BKFC 20 MMA

 

Complete name : BKFC.20. 480p By DX-TV.com.mp4
Format : MPEG-4
Format profile : Base Media / Version 2
Codec ID : mp42 (mp42)
File size : 2.86 GiB
Duration : 4 h 54 min
Overall bit rate : 1 391 kb/s

Video
ID : 1
Format : AVC
Format/Info : Advanced Video
Duration : 4 h 54 min
Bit rate : 1 256 kb/s
Width : 720 pixels
Height : 480 pixels
Display aspect ratio : 3:2
Frame rate mode : Constant
Frame rate : 30.000 FPS
Color space : YUV
Chroma subsampling : 4:2:0
Bit depth : 8 bits
Scan type : Progressive
Bits/(Pixel*Frame) : 0.121
Stream size : 2.58 GiB (90%)
Language : English
Codec configuration box : avcC

BKFC 20 MMA

Audio
ID : 2
Format : AAC LC
Format/Info : Advanced Audio
Codec ID : mp4a-40-2
Duration : 4 h 54 min
Bit rate mode : Constant
Bit rate : 128 kb/s
Channel(s) : 2 channels
Channel layout : L R
Sampling rate : 44.1 kHz
Frame rate : 43.066 FPS
Compression mode : Lossy
Stream size : 270 MiB (9%)
Title : Stereo
Language : English
Default : Yes
Alternate group : 1

Complete name : BKFC.20.720p.WEB.mp4
Format : MPEG-4
Format profile : Base Media
Codec ID : isom
File size : 5.42 GiB
Duration : 4 h 54 min
Overall bit rate mode : Variable
Overall bit rate : 2 636 kb/s

BKFC 20 MMA

Video
ID : 1
Format : AVC
Format/Info : Advanced Video
Duration : 4 h 54 min
Bit rate mode : Constant
Bit rate : 2 500 kb/s
Width : 1 280 pixels
Height : 720 pixels
Display aspect ratio : 16:9
Frame rate mode : Constant
Frame rate : 29.970 (30000/1001) FPS
Standard : NTSC
Color space : YUV
Chroma subsampling : 4:2:0
Bit depth : 8 bits
Scan type : Progressive
Bits/(Pixel*Frame) : 0.091
Stream size : 5.14 GiB (95%)
Color range : Limited
Color primaries : BT.709
Transfer characteristics : BT.709
Matrix coefficients : BT.709
Codec configuration box : avc

BKFC 20 MMA

Audio
ID : 2
Format : AAC LC
Format/Info : Advanced Audio
Codec ID : mp4a-40-2
Duration : 4 h 54 min
Source duration : 4 h 54 min
Bit rate mode : Variable
Bit rate : 125 kb/s
Maximum bit rate : 128 kb/s / 128 kb/s
Channel(s) : 2 channels
Channel layout : L R
Sampling rate : 48.0 kHz
Frame rate : 46.875 FPS (1024 SPF)
Compression mode : Lossy
Stream size : 264 MiB (5%)
Source stream size : 264 MiB (5%)
Default : Yes
Alternate group : 1
mdhd_Duration : 17675658

BKFC 20 MMA

Complete name : BKFC.20. 480p By DX-TV.com.mp4
Format : MPEG-4
Format profile : Base Media / Version 2
Codec ID : mp42 (mp42)
File size : 2.86 GiB
Duration : 4 h 54 min
Overall bit rate : 1 391 kb/s

Video
ID : 1
Format : AVC
Format/Info : Advanced Video
Duration : 4 h 54 min
Bit rate : 1 256 kb/s
Width : 720 pixels
Height : 480 pixels
Display aspect ratio : 3:2
Frame rate mode : Constant
Frame rate : 30.000 FPS
Color space : YUV
Chroma subsampling : 4:2:0
Bit depth : 8 bits
Scan type : Progressive
Bits/(Pixel*Frame) : 0.121
Stream size : 2.58 GiB (90%)
Language : English
Codec configuration box : avcC

BKFC 20 MMA

Audio
ID : 2
Format : AAC LC
Format/Info : Advanced Audio
Codec ID : mp4a-40-2
Duration : 4 h 54 min
Bit rate mode : Constant
Bit rate : 128 kb/s
Channel(s) : 2 channels
Channel layout : L R
Sampling rate : 44.1 kHz
Frame rate : 43.066 FPS
Compression mode : Lossy
Stream size : 270 MiB (9%)
Title : Stereo
Language : English
Default : Yes
Alternate group : 1

Complete name : BKFC.20.720p.WEB.mp4
Format : MPEG-4
Format profile : Base Media
Codec ID : isom
File size : 5.42 GiB
Duration : 4 h 54 min
Overall bit rate mode : Variable
Overall bit rate : 2 636 kb/s

BKFC 20 MMA

Video
ID : 1
Format : AVC
Format/Info : Advanced Video
Duration : 4 h 54 min
Bit rate mode : Constant
Bit rate : 2 500 kb/s
Width : 1 280 pixels
Height : 720 pixels
Display aspect ratio : 16:9
Frame rate mode : Constant
Frame rate : 29.970 (30000/1001) FPS
Standard : NTSC
Color space : YUV
Chroma subsampling : 4:2:0
Bit depth : 8 bits
Scan type : Progressive
Bits/(Pixel*Frame) : 0.091
Stream size : 5.14 GiB (95%)
Color range : Limited
Color primaries : BT.709
Transfer characteristics : BT.709
Matrix coefficients : BT.709
Codec configuration box : avc

BKFC 20 MMA

Audio
ID : 2
Format : AAC LC
Format/Info : Advanced Audio
Codec ID : mp4a-40-2
Duration : 4 h 54 min
Source duration : 4 h 54 min
Bit rate mode : Variable
Bit rate : 125 kb/s
Maximum bit rate : 128 kb/s / 128 kb/s
Channel(s) : 2 channels
Channel layout : L R
Sampling rate : 48.0 kHz
Frame rate : 46.875 FPS (1024 SPF)
Compression mode : Lossy
Stream size : 264 MiB (5%)
Source stream size : 264 MiB (5%)
Default : Yes
Alternate group : 1
mdhd_Duration : 17675658

BKFC 20 MMA

Complete name : BKFC.20. 480p By DX-TV.com.mp4
Format : MPEG-4
Format profile : Base Media / Version 2
Codec ID : mp42 (mp42)
File size : 2.86 GiB
Duration : 4 h 54 min
Overall bit rate : 1 391 kb/s

Video
ID : 1
Format : AVC
Format/Info : Advanced Video
Duration : 4 h 54 min
Bit rate : 1 256 kb/s
Width : 720 pixels
Height : 480 pixels
Display aspect ratio : 3:2
Frame rate mode : Constant
Frame rate : 30.000 FPS
Color space : YUV
Chroma subsampling : 4:2:0
Bit depth : 8 bits
Scan type : Progressive
Bits/(Pixel*Frame) : 0.121
Stream size : 2.58 GiB (90%)
Language : English
Codec configuration box : avcC

BKFC 20 MMA

Audio
ID : 2
Format : AAC LC
Format/Info : Advanced Audio
Codec ID : mp4a-40-2
Duration : 4 h 54 min
Bit rate mode : Constant
Bit rate : 128 kb/s
Channel(s) : 2 channels
Channel layout : L R
Sampling rate : 44.1 kHz
Frame rate : 43.066 FPS
Compression mode : Lossy
Stream size : 270 MiB (9%)
Title : Stereo
Language : English
Default : Yes
Alternate group : 1

Complete name : BKFC.20.720p.WEB.mp4
Format : MPEG-4
Format profile : Base Media
Codec ID : isom
File size : 5.42 GiB
Duration : 4 h 54 min
Overall bit rate mode : Variable
Overall bit rate : 2 636 kb/s

BKFC 20 MMA

Video
ID : 1
Format : AVC
Format/Info : Advanced Video
Duration : 4 h 54 min
Bit rate mode : Constant
Bit rate : 2 500 kb/s
Width : 1 280 pixels
Height : 720 pixels
Display aspect ratio : 16:9
Frame rate mode : Constant
Frame rate : 29.970 (30000/1001) FPS
Standard : NTSC
Color space : YUV
Chroma subsampling : 4:2:0
Bit depth : 8 bits
Scan type : Progressive
Bits/(Pixel*Frame) : 0.091
Stream size : 5.14 GiB (95%)
Color range : Limited
Color primaries : BT.709
Transfer characteristics : BT.709
Matrix coefficients : BT.709
Codec configuration box : avc

BKFC 20 MMA

Audio
ID : 2
Format : AAC LC
Format/Info : Advanced Audio
Codec ID : mp4a-40-2
Duration : 4 h 54 min
Source duration : 4 h 54 min
Bit rate mode : Variable
Bit rate : 125 kb/s
Maximum bit rate : 128 kb/s / 128 kb/s
Channel(s) : 2 channels
Channel layout : L R
Sampling rate : 48.0 kHz
Frame rate : 46.875 FPS (1024 SPF)
Compression mode : Lossy
Stream size : 264 MiB (5%)
Source stream size : 264 MiB (5%)
Default : Yes
Alternate group : 1
mdhd_Duration : 17675658

BKFC 20 MMA

Complete name : BKFC.20. 480p By DX-TV.com.mp4
Format : MPEG-4
Format profile : Base Media / Version 2
Codec ID : mp42 (mp42)
File size : 2.86 GiB
Duration : 4 h 54 min
Overall bit rate : 1 391 kb/s

Video
ID : 1
Format : AVC
Format/Info : Advanced Video
Duration : 4 h 54 min
Bit rate : 1 256 kb/s
Width : 720 pixels
Height : 480 pixels
Display aspect ratio : 3:2
Frame rate mode : Constant
Frame rate : 30.000 FPS
Color space : YUV
Chroma subsampling : 4:2:0
Bit depth : 8 bits
Scan type : Progressive
Bits/(Pixel*Frame) : 0.121
Stream size : 2.58 GiB (90%)
Language : English
Codec configuration box : avcC

BKFC 20 MMA

Audio
ID : 2
Format : AAC LC
Format/Info : Advanced Audio
Codec ID : mp4a-40-2
Duration : 4 h 54 min
Bit rate mode : Constant
Bit rate : 128 kb/s
Channel(s) : 2 channels
Channel layout : L R
Sampling rate : 44.1 kHz
Frame rate : 43.066 FPS
Compression mode : Lossy
Stream size : 270 MiB (9%)
Title : Stereo
Language : English
Default : Yes
Alternate group : 1

Complete name : BKFC.20.720p.WEB.mp4
Format : MPEG-4
Format profile : Base Media
Codec ID : isom
File size : 5.42 GiB
Duration : 4 h 54 min
Overall bit rate mode : Variable
Overall bit rate : 2 636 kb/s

BKFC 20 MMA

Video
ID : 1
Format : AVC
Format/Info : Advanced Video
Duration : 4 h 54 min
Bit rate mode : Constant
Bit rate : 2 500 kb/s
Width : 1 280 pixels
Height : 720 pixels
Display aspect ratio : 16:9
Frame rate mode : Constant
Frame rate : 29.970 (30000/1001) FPS
Standard : NTSC
Color space : YUV
Chroma subsampling : 4:2:0
Bit depth : 8 bits
Scan type : Progressive
Bits/(Pixel*Frame) : 0.091
Stream size : 5.14 GiB (95%)
Color range : Limited
Color primaries : BT.709
Transfer characteristics : BT.709
Matrix coefficients : BT.709
Codec configuration box : avc

BKFC 20 MMA

Audio
ID : 2
Format : AAC LC
Format/Info : Advanced Audio
Codec ID : mp4a-40-2
Duration : 4 h 54 min
Source duration : 4 h 54 min
Bit rate mode : Variable
Bit rate : 125 kb/s
Maximum bit rate : 128 kb/s / 128 kb/s
Channel(s) : 2 channels
Channel layout : L R
Sampling rate : 48.0 kHz
Frame rate : 46.875 FPS (1024 SPF)
Compression mode : Lossy
Stream size : 264 MiB (5%)
Source stream size : 264 MiB (5%)
Default : Yes
Alternate group : 1
mdhd_Duration : 17675658

BKFC 20 MMA

Complete name : BKFC.20. 480p By DX-TV.com.mp4
Format : MPEG-4
Format profile : Base Media / Version 2
Codec ID : mp42 (mp42)
File size : 2.86 GiB
Duration : 4 h 54 min
Overall bit rate : 1 391 kb/s

Video
ID : 1
Format : AVC
Format/Info : Advanced Video
Duration : 4 h 54 min
Bit rate : 1 256 kb/s
Width : 720 pixels
Height : 480 pixels
Display aspect ratio : 3:2
Frame rate mode : Constant
Frame rate : 30.000 FPS
Color space : YUV
Chroma subsampling : 4:2:0
Bit depth : 8 bits
Scan type : Progressive
Bits/(Pixel*Frame) : 0.121
Stream size : 2.58 GiB (90%)
Language : English
Codec configuration box : avcC

BKFC 20 MMA

Audio
ID : 2
Format : AAC LC
Format/Info : Advanced Audio
Codec ID : mp4a-40-2
Duration : 4 h 54 min
Bit rate mode : Constant
Bit rate : 128 kb/s
Channel(s) : 2 channels
Channel layout : L R
Sampling rate : 44.1 kHz
Frame rate : 43.066 FPS
Compression mode : Lossy
Stream size : 270 MiB (9%)
Title : Stereo
Language : English
Default : Yes
Alternate group : 1

Complete name : BKFC.20.720p.WEB.mp4
Format : MPEG-4
Format profile : Base Media
Codec ID : isom
File size : 5.42 GiB
Duration : 4 h 54 min
Overall bit rate mode : Variable
Overall bit rate : 2 636 kb/s

BKFC 20 MMA

Video
ID : 1
Format : AVC
Format/Info : Advanced Video
Duration : 4 h 54 min
Bit rate mode : Constant
Bit rate : 2 500 kb/s
Width : 1 280 pixels
Height : 720 pixels
Display aspect ratio : 16:9
Frame rate mode : Constant
Frame rate : 29.970 (30000/1001) FPS
Standard : NTSC
Color space : YUV
Chroma subsampling : 4:2:0
Bit depth : 8 bits
Scan type : Progressive
Bits/(Pixel*Frame) : 0.091
Stream size : 5.14 GiB (95%)
Color range : Limited
Color primaries : BT.709
Transfer characteristics : BT.709
Matrix coefficients : BT.709
Codec configuration box : avc

BKFC 20 MMA

Audio
ID : 2
Format : AAC LC
Format/Info : Advanced Audio
Codec ID : mp4a-40-2
Duration : 4 h 54 min
Source duration : 4 h 54 min
Bit rate mode : Variable
Bit rate : 125 kb/s
Maximum bit rate : 128 kb/s / 128 kb/s
Channel(s) : 2 channels
Channel layout : L R
Sampling rate : 48.0 kHz
Frame rate : 46.875 FPS (1024 SPF)
Compression mode : Lossy
Stream size : 264 MiB (5%)
Source stream size : 264 MiB (5%)
Default : Yes
Alternate group : 1
mdhd_Duration : 17675658

BKFC 20 MMA

Complete name : BKFC.20. 480p By DX-TV.com.mp4
Format : MPEG-4
Format profile : Base Media / Version 2
Codec ID : mp42 (mp42)
File size : 2.86 GiB
Duration : 4 h 54 min
Overall bit rate : 1 391 kb/s

Video
ID : 1
Format : AVC
Format/Info : Advanced Video
Duration : 4 h 54 min
Bit rate : 1 256 kb/s
Width : 720 pixels
Height : 480 pixels
Display aspect ratio : 3:2
Frame rate mode : Constant
Frame rate : 30.000 FPS
Color space : YUV
Chroma subsampling : 4:2:0
Bit depth : 8 bits
Scan type : Progressive
Bits/(Pixel*Frame) : 0.121
Stream size : 2.58 GiB (90%)
Language : English
Codec configuration box : avcC

BKFC 20 MMA

Audio
ID : 2
Format : AAC LC
Format/Info : Advanced Audio
Codec ID : mp4a-40-2
Duration : 4 h 54 min
Bit rate mode : Constant
Bit rate : 128 kb/s
Channel(s) : 2 channels
Channel layout : L R
Sampling rate : 44.1 kHz
Frame rate : 43.066 FPS
Compression mode : Lossy
Stream size : 270 MiB (9%)
Title : Stereo
Language : English
Default : Yes
Alternate group : 1

Complete name : BKFC.20.720p.WEB.mp4
Format : MPEG-4
Format profile : Base Media
Codec ID : isom
File size : 5.42 GiB
Duration : 4 h 54 min
Overall bit rate mode : Variable
Overall bit rate : 2 636 kb/s

BKFC 20 MMA

Video
ID : 1
Format : AVC
Format/Info : Advanced Video
Duration : 4 h 54 min
Bit rate mode : Constant
Bit rate : 2 500 kb/s
Width : 1 280 pixels
Height : 720 pixels
Display aspect ratio : 16:9
Frame rate mode : Constant
Frame rate : 29.970 (30000/1001) FPS
Standard : NTSC
Color space : YUV
Chroma subsampling : 4:2:0
Bit depth : 8 bits
Scan type : Progressive
Bits/(Pixel*Frame) : 0.091
Stream size : 5.14 GiB (95%)
Color range : Limited
Color primaries : BT.709
Transfer characteristics : BT.709
Matrix coefficients : BT.709
Codec configuration box : avc

BKFC 20 MMA

Audio
ID : 2
Format : AAC LC
Format/Info : Advanced Audio
Codec ID : mp4a-40-2
Duration : 4 h 54 min
Source duration : 4 h 54 min
Bit rate mode : Variable
Bit rate : 125 kb/s
Maximum bit rate : 128 kb/s / 128 kb/s
Channel(s) : 2 channels
Channel layout : L R
Sampling rate : 48.0 kHz
Frame rate : 46.875 FPS (1024 SPF)
Compression mode : Lossy
Stream size : 264 MiB (5%)
Source stream size : 264 MiB (5%)
Default : Yes
Alternate group : 1
mdhd_Duration : 17675658

BKFC 20 MMA

Complete name : BKFC.20. 480p By DX-TV.com.mp4
Format : MPEG-4
Format profile : Base Media / Version 2
Codec ID : mp42 (mp42)
File size : 2.86 GiB
Duration : 4 h 54 min
Overall bit rate : 1 391 kb/s

Video
ID : 1
Format : AVC
Format/Info : Advanced Video
Duration : 4 h 54 min
Bit rate : 1 256 kb/s
Width : 720 pixels
Height : 480 pixels
Display aspect ratio : 3:2
Frame rate mode : Constant
Frame rate : 30.000 FPS
Color space : YUV
Chroma subsampling : 4:2:0
Bit depth : 8 bits
Scan type : Progressive
Bits/(Pixel*Frame) : 0.121
Stream size : 2.58 GiB (90%)
Language : English
Codec configuration box : avcC

BKFC 20 MMA

Audio
ID : 2
Format : AAC LC
Format/Info : Advanced Audio
Codec ID : mp4a-40-2
Duration : 4 h 54 min
Bit rate mode : Constant
Bit rate : 128 kb/s
Channel(s) : 2 channels
Channel layout : L R
Sampling rate : 44.1 kHz
Frame rate : 43.066 FPS
Compression mode : Lossy
Stream size : 270 MiB (9%)
Title : Stereo
Language : English
Default : Yes
Alternate group : 1

Complete name : BKFC.20.720p.WEB.mp4
Format : MPEG-4
Format profile : Base Media
Codec ID : isom
File size : 5.42 GiB
Duration : 4 h 54 min
Overall bit rate mode : Variable
Overall bit rate : 2 636 kb/s

BKFC 20 MMA

Video
ID : 1
Format : AVC
Format/Info : Advanced Video
Duration : 4 h 54 min
Bit rate mode : Constant
Bit rate : 2 500 kb/s
Width : 1 280 pixels
Height : 720 pixels
Display aspect ratio : 16:9
Frame rate mode : Constant
Frame rate : 29.970 (30000/1001) FPS
Standard : NTSC
Color space : YUV
Chroma subsampling : 4:2:0
Bit depth : 8 bits
Scan type : Progressive
Bits/(Pixel*Frame) : 0.091
Stream size : 5.14 GiB (95%)
Color range : Limited
Color primaries : BT.709
Transfer characteristics : BT.709
Matrix coefficients : BT.709
Codec configuration box : avc

BKFC 20 MMA

Audio
ID : 2
Format : AAC LC
Format/Info : Advanced Audio
Codec ID : mp4a-40-2
Duration : 4 h 54 min
Source duration : 4 h 54 min
Bit rate mode : Variable
Bit rate : 125 kb/s
Maximum bit rate : 128 kb/s / 128 kb/s
Channel(s) : 2 channels
Channel layout : L R
Sampling rate : 48.0 kHz
Frame rate : 46.875 FPS (1024 SPF)
Compression mode : Lossy
Stream size : 264 MiB (5%)
Source stream size : 264 MiB (5%)
Default : Yes
Alternate group : 1
mdhd_Duration : 17675658

BKFC 20 MMA

Complete name : BKFC.20. 480p By DX-TV.com.mp4
Format : MPEG-4
Format profile : Base Media / Version 2
Codec ID : mp42 (mp42)
File size : 2.86 GiB
Duration : 4 h 54 min
Overall bit rate : 1 391 kb/s

Video
ID : 1
Format : AVC
Format/Info : Advanced Video
Duration : 4 h 54 min
Bit rate : 1 256 kb/s
Width : 720 pixels
Height : 480 pixels
Display aspect ratio : 3:2
Frame rate mode : Constant
Frame rate : 30.000 FPS
Color space : YUV
Chroma subsampling : 4:2:0
Bit depth : 8 bits
Scan type : Progressive
Bits/(Pixel*Frame) : 0.121
Stream size : 2.58 GiB (90%)
Language : English
Codec configuration box : avcC

BKFC 20 MMA

Audio
ID : 2
Format : AAC LC
Format/Info : Advanced Audio
Codec ID : mp4a-40-2
Duration : 4 h 54 min
Bit rate mode : Constant
Bit rate : 128 kb/s
Channel(s) : 2 channels
Channel layout : L R
Sampling rate : 44.1 kHz
Frame rate : 43.066 FPS
Compression mode : Lossy
Stream size : 270 MiB (9%)
Title : Stereo
Language : English
Default : Yes
Alternate group : 1

Complete name : BKFC.20.720p.WEB.mp4
Format : MPEG-4
Format profile : Base Media
Codec ID : isom
File size : 5.42 GiB
Duration : 4 h 54 min
Overall bit rate mode : Variable
Overall bit rate : 2 636 kb/s

BKFC 20 MMA

Video
ID : 1
Format : AVC
Format/Info : Advanced Video
Duration : 4 h 54 min
Bit rate mode : Constant
Bit rate : 2 500 kb/s
Width : 1 280 pixels
Height : 720 pixels
Display aspect ratio : 16:9
Frame rate mode : Constant
Frame rate : 29.970 (30000/1001) FPS
Standard : NTSC
Color space : YUV
Chroma subsampling : 4:2:0
Bit depth : 8 bits
Scan type : Progressive
Bits/(Pixel*Frame) : 0.091
Stream size : 5.14 GiB (95%)
Color range : Limited
Color primaries : BT.709
Transfer characteristics : BT.709
Matrix coefficients : BT.709
Codec configuration box : avc

BKFC 20 MMA

Audio
ID : 2
Format : AAC LC
Format/Info : Advanced Audio
Codec ID : mp4a-40-2
Duration : 4 h 54 min
Source duration : 4 h 54 min
Bit rate mode : Variable
Bit rate : 125 kb/s
Maximum bit rate : 128 kb/s / 128 kb/s
Channel(s) : 2 channels
Channel layout : L R
Sampling rate : 48.0 kHz
Frame rate : 46.875 FPS (1024 SPF)
Compression mode : Lossy
Stream size : 264 MiB (5%)
Source stream size : 264 MiB (5%)
Default : Yes
Alternate group : 1
mdhd_Duration : 17675658

BKFC 20 MMA

Complete name : BKFC.20. 480p By DX-TV.com.mp4
Format : MPEG-4
Format profile : Base Media / Version 2
Codec ID : mp42 (mp42)
File size : 2.86 GiB
Duration : 4 h 54 min
Overall bit rate : 1 391 kb/s

Video
ID : 1
Format : AVC
Format/Info : Advanced Video
Duration : 4 h 54 min
Bit rate : 1 256 kb/s
Width : 720 pixels
Height : 480 pixels
Display aspect ratio : 3:2
Frame rate mode : Constant
Frame rate : 30.000 FPS
Color space : YUV
Chroma subsampling : 4:2:0
Bit depth : 8 bits
Scan type : Progressive
Bits/(Pixel*Frame) : 0.121
Stream size : 2.58 GiB (90%)
Language : English
Codec configuration box : avcC

BKFC 20 MMA

Audio
ID : 2
Format : AAC LC
Format/Info : Advanced Audio
Codec ID : mp4a-40-2
Duration : 4 h 54 min
Bit rate mode : Constant
Bit rate : 128 kb/s
Channel(s) : 2 channels
Channel layout : L R
Sampling rate : 44.1 kHz
Frame rate : 43.066 FPS
Compression mode : Lossy
Stream size : 270 MiB (9%)
Title : Stereo
Language : English
Default : Yes
Alternate group : 1

Complete name : BKFC.20.720p.WEB.mp4
Format : MPEG-4
Format profile : Base Media
Codec ID : isom
File size : 5.42 GiB
Duration : 4 h 54 min
Overall bit rate mode : Variable
Overall bit rate : 2 636 kb/s

BKFC 20 MMA

Video
ID : 1
Format : AVC
Format/Info : Advanced Video
Duration : 4 h 54 min
Bit rate mode : Constant
Bit rate : 2 500 kb/s
Width : 1 280 pixels
Height : 720 pixels
Display aspect ratio : 16:9
Frame rate mode : Constant
Frame rate : 29.970 (30000/1001) FPS
Standard : NTSC
Color space : YUV
Chroma subsampling : 4:2:0
Bit depth : 8 bits
Scan type : Progressive
Bits/(Pixel*Frame) : 0.091
Stream size : 5.14 GiB (95%)
Color range : Limited
Color primaries : BT.709
Transfer characteristics : BT.709
Matrix coefficients : BT.709
Codec configuration box : avc

BKFC 20 MMA

Audio
ID : 2
Format : AAC LC
Format/Info : Advanced Audio
Codec ID : mp4a-40-2
Duration : 4 h 54 min
Source duration : 4 h 54 min
Bit rate mode : Variable
Bit rate : 125 kb/s
Maximum bit rate : 128 kb/s / 128 kb/s
Channel(s) : 2 channels
Channel layout : L R
Sampling rate : 48.0 kHz
Frame rate : 46.875 FPS (1024 SPF)
Compression mode : Lossy
Stream size : 264 MiB (5%)
Source stream size : 264 MiB (5%)
Default : Yes
Alternate group : 1
mdhd_Duration : 17675658

BKFC 20 MMA

Complete name : BKFC.20. 480p By DX-TV.com.mp4
Format : MPEG-4
Format profile : Base Media / Version 2
Codec ID : mp42 (mp42)
File size : 2.86 GiB
Duration : 4 h 54 min
Overall bit rate : 1 391 kb/s

Video
ID : 1
Format : AVC
Format/Info : Advanced Video
Duration : 4 h 54 min
Bit rate : 1 256 kb/s
Width : 720 pixels
Height : 480 pixels
Display aspect ratio : 3:2
Frame rate mode : Constant
Frame rate : 30.000 FPS
Color space : YUV
Chroma subsampling : 4:2:0
Bit depth : 8 bits
Scan type : Progressive
Bits/(Pixel*Frame) : 0.121
Stream size : 2.58 GiB (90%)
Language : English
Codec configuration box : avcC

BKFC 20 MMA

Audio
ID : 2
Format : AAC LC
Format/Info : Advanced Audio
Codec ID : mp4a-40-2
Duration : 4 h 54 min
Bit rate mode : Constant
Bit rate : 128 kb/s
Channel(s) : 2 channels
Channel layout : L R
Sampling rate : 44.1 kHz
Frame rate : 43.066 FPS
Compression mode : Lossy
Stream size : 270 MiB (9%)
Title : Stereo
Language : English
Default : Yes
Alternate group : 1

Complete name : BKFC.20.720p.WEB.mp4
Format : MPEG-4
Format profile : Base Media
Codec ID : isom
File size : 5.42 GiB
Duration : 4 h 54 min
Overall bit rate mode : Variable
Overall bit rate : 2 636 kb/s

BKFC 20 MMA

Video
ID : 1
Format : AVC
Format/Info : Advanced Video
Duration : 4 h 54 min
Bit rate mode : Constant
Bit rate : 2 500 kb/s
Width : 1 280 pixels
Height : 720 pixels
Display aspect ratio : 16:9
Frame rate mode : Constant
Frame rate : 29.970 (30000/1001) FPS
Standard : NTSC
Color space : YUV
Chroma subsampling : 4:2:0
Bit depth : 8 bits
Scan type : Progressive
Bits/(Pixel*Frame) : 0.091
Stream size : 5.14 GiB (95%)
Color range : Limited
Color primaries : BT.709
Transfer characteristics : BT.709
Matrix coefficients : BT.709
Codec configuration box : avc

BKFC 20 MMA

Audio
ID : 2
Format : AAC LC
Format/Info : Advanced Audio
Codec ID : mp4a-40-2
Duration : 4 h 54 min
Source duration : 4 h 54 min
Bit rate mode : Variable
Bit rate : 125 kb/s
Maximum bit rate : 128 kb/s / 128 kb/s
Channel(s) : 2 channels
Channel layout : L R
Sampling rate : 48.0 kHz
Frame rate : 46.875 FPS (1024 SPF)
Compression mode : Lossy
Stream size : 264 MiB (5%)
Source stream size : 264 MiB (5%)
Default : Yes
Alternate group : 1
mdhd_Duration : 17675658

BKFC 20 MMA

Complete name : BKFC.20. 480p By DX-TV.com.mp4
Format : MPEG-4
Format profile : Base Media / Version 2
Codec ID : mp42 (mp42)
File size : 2.86 GiB
Duration : 4 h 54 min
Overall bit rate : 1 391 kb/s

Video
ID : 1
Format : AVC
Format/Info : Advanced Video
Duration : 4 h 54 min
Bit rate : 1 256 kb/s
Width : 720 pixels
Height : 480 pixels
Display aspect ratio : 3:2
Frame rate mode : Constant
Frame rate : 30.000 FPS
Color space : YUV
Chroma subsampling : 4:2:0
Bit depth : 8 bits
Scan type : Progressive
Bits/(Pixel*Frame) : 0.121
Stream size : 2.58 GiB (90%)
Language : English
Codec configuration box : avcC

BKFC 20 MMA

Audio
ID : 2
Format : AAC LC
Format/Info : Advanced Audio
Codec ID : mp4a-40-2
Duration : 4 h 54 min
Bit rate mode : Constant
Bit rate : 128 kb/s
Channel(s) : 2 channels
Channel layout : L R
Sampling rate : 44.1 kHz
Frame rate : 43.066 FPS
Compression mode : Lossy
Stream size : 270 MiB (9%)
Title : Stereo
Language : English
Default : Yes
Alternate group : 1

Complete name : BKFC.20.720p.WEB.mp4
Format : MPEG-4
Format profile : Base Media
Codec ID : isom
File size : 5.42 GiB
Duration : 4 h 54 min
Overall bit rate mode : Variable
Overall bit rate : 2 636 kb/s

BKFC 20 MMA

Video
ID : 1
Format : AVC
Format/Info : Advanced Video
Duration : 4 h 54 min
Bit rate mode : Constant
Bit rate : 2 500 kb/s
Width : 1 280 pixels
Height : 720 pixels
Display aspect ratio : 16:9
Frame rate mode : Constant
Frame rate : 29.970 (30000/1001) FPS
Standard : NTSC
Color space : YUV
Chroma subsampling : 4:2:0
Bit depth : 8 bits
Scan type : Progressive
Bits/(Pixel*Frame) : 0.091
Stream size : 5.14 GiB (95%)
Color range : Limited
Color primaries : BT.709
Transfer characteristics : BT.709
Matrix coefficients : BT.709
Codec configuration box : avc

BKFC 20 MMA

Audio
ID : 2
Format : AAC LC
Format/Info : Advanced Audio
Codec ID : mp4a-40-2
Duration : 4 h 54 min
Source duration : 4 h 54 min
Bit rate mode : Variable
Bit rate : 125 kb/s
Maximum bit rate : 128 kb/s / 128 kb/s
Channel(s) : 2 channels
Channel layout : L R
Sampling rate : 48.0 kHz
Frame rate : 46.875 FPS (1024 SPF)
Compression mode : Lossy
Stream size : 264 MiB (5%)
Source stream size : 264 MiB (5%)
Default : Yes
Alternate group : 1
mdhd_Duration : 17675658

BKFC 20 MMA

Complete name : BKFC.20. 480p By DX-TV.com.mp4
Format : MPEG-4
Format profile : Base Media / Version 2
Codec ID : mp42 (mp42)
File size : 2.86 GiB
Duration : 4 h 54 min
Overall bit rate : 1 391 kb/s

Video
ID : 1
Format : AVC
Format/Info : Advanced Video
Duration : 4 h 54 min
Bit rate : 1 256 kb/s
Width : 720 pixels
Height : 480 pixels
Display aspect ratio : 3:2
Frame rate mode : Constant
Frame rate : 30.000 FPS
Color space : YUV
Chroma subsampling : 4:2:0
Bit depth : 8 bits
Scan type : Progressive
Bits/(Pixel*Frame) : 0.121
Stream size : 2.58 GiB (90%)
Language : English
Codec configuration box : avcC

BKFC 20 MMA

Audio
ID : 2
Format : AAC LC
Format/Info : Advanced Audio
Codec ID : mp4a-40-2
Duration : 4 h 54 min
Bit rate mode : Constant
Bit rate : 128 kb/s
Channel(s) : 2 channels
Channel layout : L R
Sampling rate : 44.1 kHz
Frame rate : 43.066 FPS
Compression mode : Lossy
Stream size : 270 MiB (9%)
Title : Stereo
Language : English
Default : Yes
Alternate group : 1

Complete name : BKFC.20.720p.WEB.mp4
Format : MPEG-4
Format profile : Base Media
Codec ID : isom
File size : 5.42 GiB
Duration : 4 h 54 min
Overall bit rate mode : Variable
Overall bit rate : 2 636 kb/s

BKFC 20 MMA

Video
ID : 1
Format : AVC
Format/Info : Advanced Video
Duration : 4 h 54 min
Bit rate mode : Constant
Bit rate : 2 500 kb/s
Width : 1 280 pixels
Height : 720 pixels
Display aspect ratio : 16:9
Frame rate mode : Constant
Frame rate : 29.970 (30000/1001) FPS
Standard : NTSC
Color space : YUV
Chroma subsampling : 4:2:0
Bit depth : 8 bits
Scan type : Progressive
Bits/(Pixel*Frame) : 0.091
Stream size : 5.14 GiB (95%)
Color range : Limited
Color primaries : BT.709
Transfer characteristics : BT.709
Matrix coefficients : BT.709
Codec configuration box : avc

BKFC 20 MMA

Audio
ID : 2
Format : AAC LC
Format/Info : Advanced Audio
Codec ID : mp4a-40-2
Duration : 4 h 54 min
Source duration : 4 h 54 min
Bit rate mode : Variable
Bit rate : 125 kb/s
Maximum bit rate : 128 kb/s / 128 kb/s
Channel(s) : 2 channels
Channel layout : L R
Sampling rate : 48.0 kHz
Frame rate : 46.875 FPS (1024 SPF)
Compression mode : Lossy
Stream size : 264 MiB (5%)
Source stream size : 264 MiB (5%)
Default : Yes
Alternate group : 1
mdhd_Duration : 17675658

BKFC 20 MMA

Complete name : BKFC.20. 480p By DX-TV.com.mp4
Format : MPEG-4
Format profile : Base Media / Version 2
Codec ID : mp42 (mp42)
File size : 2.86 GiB
Duration : 4 h 54 min
Overall bit rate : 1 391 kb/s

Video
ID : 1
Format : AVC
Format/Info : Advanced Video
Duration : 4 h 54 min
Bit rate : 1 256 kb/s
Width : 720 pixels
Height : 480 pixels
Display aspect ratio : 3:2
Frame rate mode : Constant
Frame rate : 30.000 FPS
Color space : YUV
Chroma subsampling : 4:2:0
Bit depth : 8 bits
Scan type : Progressive
Bits/(Pixel*Frame) : 0.121
Stream size : 2.58 GiB (90%)
Language : English
Codec configuration box : avcC

BKFC 20 MMA

Audio
ID : 2
Format : AAC LC
Format/Info : Advanced Audio
Codec ID : mp4a-40-2
Duration : 4 h 54 min
Bit rate mode : Constant
Bit rate : 128 kb/s
Channel(s) : 2 channels
Channel layout : L R
Sampling rate : 44.1 kHz
Frame rate : 43.066 FPS
Compression mode : Lossy
Stream size : 270 MiB (9%)
Title : Stereo
Language : English
Default : Yes
Alternate group : 1

Complete name : BKFC.20.720p.WEB.mp4
Format : MPEG-4
Format profile : Base Media
Codec ID : isom
File size : 5.42 GiB
Duration : 4 h 54 min
Overall bit rate mode : Variable
Overall bit rate : 2 636 kb/s

BKFC 20 MMA

Video
ID : 1
Format : AVC
Format/Info : Advanced Video
Duration : 4 h 54 min
Bit rate mode : Constant
Bit rate : 2 500 kb/s
Width : 1 280 pixels
Height : 720 pixels
Display aspect ratio : 16:9
Frame rate mode : Constant
Frame rate : 29.970 (30000/1001) FPS
Standard : NTSC
Color space : YUV
Chroma subsampling : 4:2:0
Bit depth : 8 bits
Scan type : Progressive
Bits/(Pixel*Frame) : 0.091
Stream size : 5.14 GiB (95%)
Color range : Limited
Color primaries : BT.709
Transfer characteristics : BT.709
Matrix coefficients : BT.709
Codec configuration box : avc

BKFC 20 MMA

Audio
ID : 2
Format : AAC LC
Format/Info : Advanced Audio
Codec ID : mp4a-40-2
Duration : 4 h 54 min
Source duration : 4 h 54 min
Bit rate mode : Variable
Bit rate : 125 kb/s
Maximum bit rate : 128 kb/s / 128 kb/s
Channel(s) : 2 channels
Channel layout : L R
Sampling rate : 48.0 kHz
Frame rate : 46.875 FPS (1024 SPF)
Compression mode : Lossy
Stream size : 264 MiB (5%)
Source stream size : 264 MiB (5%)
Default : Yes
Alternate group : 1
mdhd_Duration : 17675658

BKFC 20 MMA

Complete name : BKFC.20. 480p By DX-TV.com.mp4
Format : MPEG-4
Format profile : Base Media / Version 2
Codec ID : mp42 (mp42)
File size : 2.86 GiB
Duration : 4 h 54 min
Overall bit rate : 1 391 kb/s

Video
ID : 1
Format : AVC
Format/Info : Advanced Video
Duration : 4 h 54 min
Bit rate : 1 256 kb/s
Width : 720 pixels
Height : 480 pixels
Display aspect ratio : 3:2
Frame rate mode : Constant
Frame rate : 30.000 FPS
Color space : YUV
Chroma subsampling : 4:2:0
Bit depth : 8 bits
Scan type : Progressive
Bits/(Pixel*Frame) : 0.121
Stream size : 2.58 GiB (90%)
Language : English
Codec configuration box : avcC

BKFC 20 MMA

Audio
ID : 2
Format : AAC LC
Format/Info : Advanced Audio
Codec ID : mp4a-40-2
Duration : 4 h 54 min
Bit rate mode : Constant
Bit rate : 128 kb/s
Channel(s) : 2 channels
Channel layout : L R
Sampling rate : 44.1 kHz
Frame rate : 43.066 FPS
Compression mode : Lossy
Stream size : 270 MiB (9%)
Title : Stereo
Language : English
Default : Yes
Alternate group : 1

Complete name : BKFC.20.720p.WEB.mp4
Format : MPEG-4
Format profile : Base Media
Codec ID : isom
File size : 5.42 GiB
Duration : 4 h 54 min
Overall bit rate mode : Variable
Overall bit rate : 2 636 kb/s

BKFC 20 MMA

Video
ID : 1
Format : AVC
Format/Info : Advanced Video
Duration : 4 h 54 min
Bit rate mode : Constant
Bit rate : 2 500 kb/s
Width : 1 280 pixels
Height : 720 pixels
Display aspect ratio : 16:9
Frame rate mode : Constant
Frame rate : 29.970 (30000/1001) FPS
Standard : NTSC
Color space : YUV
Chroma subsampling : 4:2:0
Bit depth : 8 bits
Scan type : Progressive
Bits/(Pixel*Frame) : 0.091
Stream size : 5.14 GiB (95%)
Color range : Limited
Color primaries : BT.709
Transfer characteristics : BT.709
Matrix coefficients : BT.709
Codec configuration box : avc

BKFC 20 MMA

Audio
ID : 2
Format : AAC LC
Format/Info : Advanced Audio
Codec ID : mp4a-40-2
Duration : 4 h 54 min
Source duration : 4 h 54 min
Bit rate mode : Variable
Bit rate : 125 kb/s
Maximum bit rate : 128 kb/s / 128 kb/s
Channel(s) : 2 channels
Channel layout : L R
Sampling rate : 48.0 kHz
Frame rate : 46.875 FPS (1024 SPF)
Compression mode : Lossy
Stream size : 264 MiB (5%)
Source stream size : 264 MiB (5%)
Default : Yes
Alternate group : 1
mdhd_Duration : 17675658

BKFC 20 MMA

 

[collapse]

 

 

https://dx-tv.com/

Leave a Reply

Your email address will not be published. Required fields are marked *

This site uses Akismet to reduce spam. Learn how your comment data is processed.