BJW Ikkitousen Deathmatch Survivor Final 2021 06 28 Tokyo Online Free Replay DX-TV

Contents show

BJW Ikkitousen Deathmatch Survivor Final

 BJW Ikkitousen Deathmatch Survivor Final

 

 

 

Download Links with premium High Speed


Dopapk

 

 

Show Links

 

http://shrt10.com/PBt5Wx

 

[collapse]

 

 

Nitroflare

 

 

Show Links

 

http://shrt10.com/6Jh4giSwz

 

[collapse]

 

 

Rapidgator

 

 

Show Links

 

http://shrt10.com/E1JG83a

 

[collapse]

 

 

Uploaded

 

 

Show Links

 

http://shrt10.com/4FUejXqML

 

[collapse]

 

 

Watch online

 

Server 1

 

 

 

 

BJW Ikkitousen Deathmatch Survivor Final

 

 

 

 

Server-2

 

 

 

 

watch now

 

 

 

|Server-4

 

 

 

 

watch now

 

 

Uploaded By Site DX-TV.com

 

 

Show Info This Show

BJW Ikkitousen Deathmatch Survivor Final

 

Complete name : 2021.06.28.BJW.Ikkitousen.Deathmatch.Survivor.2021.Final.Tokyo.Korakuen.Hall.(Samurai.TV).mp4
Format : MPEG-4
Format profile : Base Media
Codec ID : isom
File size : 3.05 GiB
Duration : 2 h 34 min
Overall bit rate : 2 820 kb/s

Video
ID : 1
Format : AVC
Format/Info : Advanced Video
Duration : 2 h 34 min
Bit rate : 2 615 kb/s
Width : 1 280 pixels
Height : 720 pixels
Display aspect ratio : 16:9
Frame rate mode : Constant
Frame rate : 60.000 FPS
Color space : YUV
Chroma subsampling : 4:2:0
Bit depth : 8 bits
Scan type : Progressive
Bits/(Pixel*Frame) : 0.047
Stream size : 2.83 GiB (93%)
Color primaries : BT.709
Transfer characteristics : BT.709
Matrix coefficients : BT.709
Codec configuration box : avc

BJW Ikkitousen Deathmatch Survivor Final

Audio
ID : 2
Format : AAC LC
Format/Info : Advanced Audio
Codec ID : mp4a-40-2
Duration : 2 h 34 min
Bit rate mode : Constant
Bit rate : 192 kb/s
Channel(s) : 2 channels
Channel layout : L R
Sampling rate : 48.0 kHz
Frame rate : 46.875 FPS (1024 SPF)
Compression mode : Lossy
Stream size : 213 MiB (7%)
Default : Yes
Alternate group : 1

BJW Ikkitousen Deathmatch Survivor Final

Complete name : 2021.06.28.BJW.Ikkitousen.Deathmatch.Survivor.2021.Final.Tokyo.Korakuen.Hall.(Samurai.TV).mp4
Format : MPEG-4
Format profile : Base Media
Codec ID : isom
File size : 3.05 GiB
Duration : 2 h 34 min
Overall bit rate : 2 820 kb/s

Video
ID : 1
Format : AVC
Format/Info : Advanced Video
Duration : 2 h 34 min
Bit rate : 2 615 kb/s
Width : 1 280 pixels
Height : 720 pixels
Display aspect ratio : 16:9
Frame rate mode : Constant
Frame rate : 60.000 FPS
Color space : YUV
Chroma subsampling : 4:2:0
Bit depth : 8 bits
Scan type : Progressive
Bits/(Pixel*Frame) : 0.047
Stream size : 2.83 GiB (93%)
Color primaries : BT.709
Transfer characteristics : BT.709
Matrix coefficients : BT.709
Codec configuration box : avc

BJW Ikkitousen Deathmatch Survivor Final

Audio
ID : 2
Format : AAC LC
Format/Info : Advanced Audio
Codec ID : mp4a-40-2
Duration : 2 h 34 min
Bit rate mode : Constant
Bit rate : 192 kb/s
Channel(s) : 2 channels
Channel layout : L R
Sampling rate : 48.0 kHz
Frame rate : 46.875 FPS (1024 SPF)
Compression mode : Lossy
Stream size : 213 MiB (7%)
Default : Yes
Alternate group : 1

BJW Ikkitousen Deathmatch Survivor Final

Complete name : 2021.06.28.BJW.Ikkitousen.Deathmatch.Survivor.2021.Final.Tokyo.Korakuen.Hall.(Samurai.TV).mp4
Format : MPEG-4
Format profile : Base Media
Codec ID : isom
File size : 3.05 GiB
Duration : 2 h 34 min
Overall bit rate : 2 820 kb/s

Video
ID : 1
Format : AVC
Format/Info : Advanced Video
Duration : 2 h 34 min
Bit rate : 2 615 kb/s
Width : 1 280 pixels
Height : 720 pixels
Display aspect ratio : 16:9
Frame rate mode : Constant
Frame rate : 60.000 FPS
Color space : YUV
Chroma subsampling : 4:2:0
Bit depth : 8 bits
Scan type : Progressive
Bits/(Pixel*Frame) : 0.047
Stream size : 2.83 GiB (93%)
Color primaries : BT.709
Transfer characteristics : BT.709
Matrix coefficients : BT.709
Codec configuration box : avc

BJW Ikkitousen Deathmatch Survivor Final

Audio
ID : 2
Format : AAC LC
Format/Info : Advanced Audio
Codec ID : mp4a-40-2
Duration : 2 h 34 min
Bit rate mode : Constant
Bit rate : 192 kb/s
Channel(s) : 2 channels
Channel layout : L R
Sampling rate : 48.0 kHz
Frame rate : 46.875 FPS (1024 SPF)
Compression mode : Lossy
Stream size : 213 MiB (7%)
Default : Yes
Alternate group : 1

BJW Ikkitousen Deathmatch Survivor Final

Complete name : 2021.06.28.BJW.Ikkitousen.Deathmatch.Survivor.2021.Final.Tokyo.Korakuen.Hall.(Samurai.TV).mp4
Format : MPEG-4
Format profile : Base Media
Codec ID : isom
File size : 3.05 GiB
Duration : 2 h 34 min
Overall bit rate : 2 820 kb/s

Video
ID : 1
Format : AVC
Format/Info : Advanced Video
Duration : 2 h 34 min
Bit rate : 2 615 kb/s
Width : 1 280 pixels
Height : 720 pixels
Display aspect ratio : 16:9
Frame rate mode : Constant
Frame rate : 60.000 FPS
Color space : YUV
Chroma subsampling : 4:2:0
Bit depth : 8 bits
Scan type : Progressive
Bits/(Pixel*Frame) : 0.047
Stream size : 2.83 GiB (93%)
Color primaries : BT.709
Transfer characteristics : BT.709
Matrix coefficients : BT.709
Codec configuration box : avc

BJW Ikkitousen Deathmatch Survivor Final

Audio
ID : 2
Format : AAC LC
Format/Info : Advanced Audio
Codec ID : mp4a-40-2
Duration : 2 h 34 min
Bit rate mode : Constant
Bit rate : 192 kb/s
Channel(s) : 2 channels
Channel layout : L R
Sampling rate : 48.0 kHz
Frame rate : 46.875 FPS (1024 SPF)
Compression mode : Lossy
Stream size : 213 MiB (7%)
Default : Yes
Alternate group : 1

BJW Ikkitousen Deathmatch Survivor Final

Complete name : 2021.06.28.BJW.Ikkitousen.Deathmatch.Survivor.2021.Final.Tokyo.Korakuen.Hall.(Samurai.TV).mp4
Format : MPEG-4
Format profile : Base Media
Codec ID : isom
File size : 3.05 GiB
Duration : 2 h 34 min
Overall bit rate : 2 820 kb/s

Video
ID : 1
Format : AVC
Format/Info : Advanced Video
Duration : 2 h 34 min
Bit rate : 2 615 kb/s
Width : 1 280 pixels
Height : 720 pixels
Display aspect ratio : 16:9
Frame rate mode : Constant
Frame rate : 60.000 FPS
Color space : YUV
Chroma subsampling : 4:2:0
Bit depth : 8 bits
Scan type : Progressive
Bits/(Pixel*Frame) : 0.047
Stream size : 2.83 GiB (93%)
Color primaries : BT.709
Transfer characteristics : BT.709
Matrix coefficients : BT.709
Codec configuration box : avc

BJW Ikkitousen Deathmatch Survivor Final

Audio
ID : 2
Format : AAC LC
Format/Info : Advanced Audio
Codec ID : mp4a-40-2
Duration : 2 h 34 min
Bit rate mode : Constant
Bit rate : 192 kb/s
Channel(s) : 2 channels
Channel layout : L R
Sampling rate : 48.0 kHz
Frame rate : 46.875 FPS (1024 SPF)
Compression mode : Lossy
Stream size : 213 MiB (7%)
Default : Yes
Alternate group : 1

BJW Ikkitousen Deathmatch Survivor Final

Complete name : 2021.06.28.BJW.Ikkitousen.Deathmatch.Survivor.2021.Final.Tokyo.Korakuen.Hall.(Samurai.TV).mp4
Format : MPEG-4
Format profile : Base Media
Codec ID : isom
File size : 3.05 GiB
Duration : 2 h 34 min
Overall bit rate : 2 820 kb/s

Video
ID : 1
Format : AVC
Format/Info : Advanced Video
Duration : 2 h 34 min
Bit rate : 2 615 kb/s
Width : 1 280 pixels
Height : 720 pixels
Display aspect ratio : 16:9
Frame rate mode : Constant
Frame rate : 60.000 FPS
Color space : YUV
Chroma subsampling : 4:2:0
Bit depth : 8 bits
Scan type : Progressive
Bits/(Pixel*Frame) : 0.047
Stream size : 2.83 GiB (93%)
Color primaries : BT.709
Transfer characteristics : BT.709
Matrix coefficients : BT.709
Codec configuration box : avc

BJW Ikkitousen Deathmatch Survivor Final

Audio
ID : 2
Format : AAC LC
Format/Info : Advanced Audio
Codec ID : mp4a-40-2
Duration : 2 h 34 min
Bit rate mode : Constant
Bit rate : 192 kb/s
Channel(s) : 2 channels
Channel layout : L R
Sampling rate : 48.0 kHz
Frame rate : 46.875 FPS (1024 SPF)
Compression mode : Lossy
Stream size : 213 MiB (7%)
Default : Yes
Alternate group : 1

BJW Ikkitousen Deathmatch Survivor Final

Complete name : 2021.06.28.BJW.Ikkitousen.Deathmatch.Survivor.2021.Final.Tokyo.Korakuen.Hall.(Samurai.TV).mp4
Format : MPEG-4
Format profile : Base Media
Codec ID : isom
File size : 3.05 GiB
Duration : 2 h 34 min
Overall bit rate : 2 820 kb/s

Video
ID : 1
Format : AVC
Format/Info : Advanced Video
Duration : 2 h 34 min
Bit rate : 2 615 kb/s
Width : 1 280 pixels
Height : 720 pixels
Display aspect ratio : 16:9
Frame rate mode : Constant
Frame rate : 60.000 FPS
Color space : YUV
Chroma subsampling : 4:2:0
Bit depth : 8 bits
Scan type : Progressive
Bits/(Pixel*Frame) : 0.047
Stream size : 2.83 GiB (93%)
Color primaries : BT.709
Transfer characteristics : BT.709
Matrix coefficients : BT.709
Codec configuration box : avc

BJW Ikkitousen Deathmatch Survivor Final

Audio
ID : 2
Format : AAC LC
Format/Info : Advanced Audio
Codec ID : mp4a-40-2
Duration : 2 h 34 min
Bit rate mode : Constant
Bit rate : 192 kb/s
Channel(s) : 2 channels
Channel layout : L R
Sampling rate : 48.0 kHz
Frame rate : 46.875 FPS (1024 SPF)
Compression mode : Lossy
Stream size : 213 MiB (7%)
Default : Yes
Alternate group : 1

BJW Ikkitousen Deathmatch Survivor Final

Complete name : 2021.06.28.BJW.Ikkitousen.Deathmatch.Survivor.2021.Final.Tokyo.Korakuen.Hall.(Samurai.TV).mp4
Format : MPEG-4
Format profile : Base Media
Codec ID : isom
File size : 3.05 GiB
Duration : 2 h 34 min
Overall bit rate : 2 820 kb/s

Video
ID : 1
Format : AVC
Format/Info : Advanced Video
Duration : 2 h 34 min
Bit rate : 2 615 kb/s
Width : 1 280 pixels
Height : 720 pixels
Display aspect ratio : 16:9
Frame rate mode : Constant
Frame rate : 60.000 FPS
Color space : YUV
Chroma subsampling : 4:2:0
Bit depth : 8 bits
Scan type : Progressive
Bits/(Pixel*Frame) : 0.047
Stream size : 2.83 GiB (93%)
Color primaries : BT.709
Transfer characteristics : BT.709
Matrix coefficients : BT.709
Codec configuration box : avc

BJW Ikkitousen Deathmatch Survivor Final

Audio
ID : 2
Format : AAC LC
Format/Info : Advanced Audio
Codec ID : mp4a-40-2
Duration : 2 h 34 min
Bit rate mode : Constant
Bit rate : 192 kb/s
Channel(s) : 2 channels
Channel layout : L R
Sampling rate : 48.0 kHz
Frame rate : 46.875 FPS (1024 SPF)
Compression mode : Lossy
Stream size : 213 MiB (7%)
Default : Yes
Alternate group : 1

BJW Ikkitousen Deathmatch Survivor Final

Complete name : 2021.06.28.BJW.Ikkitousen.Deathmatch.Survivor.2021.Final.Tokyo.Korakuen.Hall.(Samurai.TV).mp4
Format : MPEG-4
Format profile : Base Media
Codec ID : isom
File size : 3.05 GiB
Duration : 2 h 34 min
Overall bit rate : 2 820 kb/s

Video
ID : 1
Format : AVC
Format/Info : Advanced Video
Duration : 2 h 34 min
Bit rate : 2 615 kb/s
Width : 1 280 pixels
Height : 720 pixels
Display aspect ratio : 16:9
Frame rate mode : Constant
Frame rate : 60.000 FPS
Color space : YUV
Chroma subsampling : 4:2:0
Bit depth : 8 bits
Scan type : Progressive
Bits/(Pixel*Frame) : 0.047
Stream size : 2.83 GiB (93%)
Color primaries : BT.709
Transfer characteristics : BT.709
Matrix coefficients : BT.709
Codec configuration box : avc

BJW Ikkitousen Deathmatch Survivor Final

Audio
ID : 2
Format : AAC LC
Format/Info : Advanced Audio
Codec ID : mp4a-40-2
Duration : 2 h 34 min
Bit rate mode : Constant
Bit rate : 192 kb/s
Channel(s) : 2 channels
Channel layout : L R
Sampling rate : 48.0 kHz
Frame rate : 46.875 FPS (1024 SPF)
Compression mode : Lossy
Stream size : 213 MiB (7%)
Default : Yes
Alternate group : 1

BJW Ikkitousen Deathmatch Survivor Final

Complete name : 2021.06.28.BJW.Ikkitousen.Deathmatch.Survivor.2021.Final.Tokyo.Korakuen.Hall.(Samurai.TV).mp4
Format : MPEG-4
Format profile : Base Media
Codec ID : isom
File size : 3.05 GiB
Duration : 2 h 34 min
Overall bit rate : 2 820 kb/s

Video
ID : 1
Format : AVC
Format/Info : Advanced Video
Duration : 2 h 34 min
Bit rate : 2 615 kb/s
Width : 1 280 pixels
Height : 720 pixels
Display aspect ratio : 16:9
Frame rate mode : Constant
Frame rate : 60.000 FPS
Color space : YUV
Chroma subsampling : 4:2:0
Bit depth : 8 bits
Scan type : Progressive
Bits/(Pixel*Frame) : 0.047
Stream size : 2.83 GiB (93%)
Color primaries : BT.709
Transfer characteristics : BT.709
Matrix coefficients : BT.709
Codec configuration box : avc

BJW Ikkitousen Deathmatch Survivor Final

Audio
ID : 2
Format : AAC LC
Format/Info : Advanced Audio
Codec ID : mp4a-40-2
Duration : 2 h 34 min
Bit rate mode : Constant
Bit rate : 192 kb/s
Channel(s) : 2 channels
Channel layout : L R
Sampling rate : 48.0 kHz
Frame rate : 46.875 FPS (1024 SPF)
Compression mode : Lossy
Stream size : 213 MiB (7%)
Default : Yes
Alternate group : 1

BJW Ikkitousen Deathmatch Survivor Final

Complete name : 2021.06.28.BJW.Ikkitousen.Deathmatch.Survivor.2021.Final.Tokyo.Korakuen.Hall.(Samurai.TV).mp4
Format : MPEG-4
Format profile : Base Media
Codec ID : isom
File size : 3.05 GiB
Duration : 2 h 34 min
Overall bit rate : 2 820 kb/s

Video
ID : 1
Format : AVC
Format/Info : Advanced Video
Duration : 2 h 34 min
Bit rate : 2 615 kb/s
Width : 1 280 pixels
Height : 720 pixels
Display aspect ratio : 16:9
Frame rate mode : Constant
Frame rate : 60.000 FPS
Color space : YUV
Chroma subsampling : 4:2:0
Bit depth : 8 bits
Scan type : Progressive
Bits/(Pixel*Frame) : 0.047
Stream size : 2.83 GiB (93%)
Color primaries : BT.709
Transfer characteristics : BT.709
Matrix coefficients : BT.709
Codec configuration box : avc

BJW Ikkitousen Deathmatch Survivor Final

Audio
ID : 2
Format : AAC LC
Format/Info : Advanced Audio
Codec ID : mp4a-40-2
Duration : 2 h 34 min
Bit rate mode : Constant
Bit rate : 192 kb/s
Channel(s) : 2 channels
Channel layout : L R
Sampling rate : 48.0 kHz
Frame rate : 46.875 FPS (1024 SPF)
Compression mode : Lossy
Stream size : 213 MiB (7%)
Default : Yes
Alternate group : 1

BJW Ikkitousen Deathmatch Survivor Final

Complete name : 2021.06.28.BJW.Ikkitousen.Deathmatch.Survivor.2021.Final.Tokyo.Korakuen.Hall.(Samurai.TV).mp4
Format : MPEG-4
Format profile : Base Media
Codec ID : isom
File size : 3.05 GiB
Duration : 2 h 34 min
Overall bit rate : 2 820 kb/s

Video
ID : 1
Format : AVC
Format/Info : Advanced Video
Duration : 2 h 34 min
Bit rate : 2 615 kb/s
Width : 1 280 pixels
Height : 720 pixels
Display aspect ratio : 16:9
Frame rate mode : Constant
Frame rate : 60.000 FPS
Color space : YUV
Chroma subsampling : 4:2:0
Bit depth : 8 bits
Scan type : Progressive
Bits/(Pixel*Frame) : 0.047
Stream size : 2.83 GiB (93%)
Color primaries : BT.709
Transfer characteristics : BT.709
Matrix coefficients : BT.709
Codec configuration box : avc

BJW Ikkitousen Deathmatch Survivor Final

Audio
ID : 2
Format : AAC LC
Format/Info : Advanced Audio
Codec ID : mp4a-40-2
Duration : 2 h 34 min
Bit rate mode : Constant
Bit rate : 192 kb/s
Channel(s) : 2 channels
Channel layout : L R
Sampling rate : 48.0 kHz
Frame rate : 46.875 FPS (1024 SPF)
Compression mode : Lossy
Stream size : 213 MiB (7%)
Default : Yes
Alternate group : 1

BJW Ikkitousen Deathmatch Survivor Final

Complete name : 2021.06.28.BJW.Ikkitousen.Deathmatch.Survivor.2021.Final.Tokyo.Korakuen.Hall.(Samurai.TV).mp4
Format : MPEG-4
Format profile : Base Media
Codec ID : isom
File size : 3.05 GiB
Duration : 2 h 34 min
Overall bit rate : 2 820 kb/s

Video
ID : 1
Format : AVC
Format/Info : Advanced Video
Duration : 2 h 34 min
Bit rate : 2 615 kb/s
Width : 1 280 pixels
Height : 720 pixels
Display aspect ratio : 16:9
Frame rate mode : Constant
Frame rate : 60.000 FPS
Color space : YUV
Chroma subsampling : 4:2:0
Bit depth : 8 bits
Scan type : Progressive
Bits/(Pixel*Frame) : 0.047
Stream size : 2.83 GiB (93%)
Color primaries : BT.709
Transfer characteristics : BT.709
Matrix coefficients : BT.709
Codec configuration box : avc

BJW Ikkitousen Deathmatch Survivor Final

Audio
ID : 2
Format : AAC LC
Format/Info : Advanced Audio
Codec ID : mp4a-40-2
Duration : 2 h 34 min
Bit rate mode : Constant
Bit rate : 192 kb/s
Channel(s) : 2 channels
Channel layout : L R
Sampling rate : 48.0 kHz
Frame rate : 46.875 FPS (1024 SPF)
Compression mode : Lossy
Stream size : 213 MiB (7%)
Default : Yes
Alternate group : 1

BJW Ikkitousen Deathmatch Survivor Final

Complete name : 2021.06.28.BJW.Ikkitousen.Deathmatch.Survivor.2021.Final.Tokyo.Korakuen.Hall.(Samurai.TV).mp4
Format : MPEG-4
Format profile : Base Media
Codec ID : isom
File size : 3.05 GiB
Duration : 2 h 34 min
Overall bit rate : 2 820 kb/s

Video
ID : 1
Format : AVC
Format/Info : Advanced Video
Duration : 2 h 34 min
Bit rate : 2 615 kb/s
Width : 1 280 pixels
Height : 720 pixels
Display aspect ratio : 16:9
Frame rate mode : Constant
Frame rate : 60.000 FPS
Color space : YUV
Chroma subsampling : 4:2:0
Bit depth : 8 bits
Scan type : Progressive
Bits/(Pixel*Frame) : 0.047
Stream size : 2.83 GiB (93%)
Color primaries : BT.709
Transfer characteristics : BT.709
Matrix coefficients : BT.709
Codec configuration box : avc

BJW Ikkitousen Deathmatch Survivor Final

Audio
ID : 2
Format : AAC LC
Format/Info : Advanced Audio
Codec ID : mp4a-40-2
Duration : 2 h 34 min
Bit rate mode : Constant
Bit rate : 192 kb/s
Channel(s) : 2 channels
Channel layout : L R
Sampling rate : 48.0 kHz
Frame rate : 46.875 FPS (1024 SPF)
Compression mode : Lossy
Stream size : 213 MiB (7%)
Default : Yes
Alternate group : 1

BJW Ikkitousen Deathmatch Survivor Final

Complete name : 2021.06.28.BJW.Ikkitousen.Deathmatch.Survivor.2021.Final.Tokyo.Korakuen.Hall.(Samurai.TV).mp4
Format : MPEG-4
Format profile : Base Media
Codec ID : isom
File size : 3.05 GiB
Duration : 2 h 34 min
Overall bit rate : 2 820 kb/s

Video
ID : 1
Format : AVC
Format/Info : Advanced Video
Duration : 2 h 34 min
Bit rate : 2 615 kb/s
Width : 1 280 pixels
Height : 720 pixels
Display aspect ratio : 16:9
Frame rate mode : Constant
Frame rate : 60.000 FPS
Color space : YUV
Chroma subsampling : 4:2:0
Bit depth : 8 bits
Scan type : Progressive
Bits/(Pixel*Frame) : 0.047
Stream size : 2.83 GiB (93%)
Color primaries : BT.709
Transfer characteristics : BT.709
Matrix coefficients : BT.709
Codec configuration box : avc

BJW Ikkitousen Deathmatch Survivor Final

Audio
ID : 2
Format : AAC LC
Format/Info : Advanced Audio
Codec ID : mp4a-40-2
Duration : 2 h 34 min
Bit rate mode : Constant
Bit rate : 192 kb/s
Channel(s) : 2 channels
Channel layout : L R
Sampling rate : 48.0 kHz
Frame rate : 46.875 FPS (1024 SPF)
Compression mode : Lossy
Stream size : 213 MiB (7%)
Default : Yes
Alternate group : 1

BJW Ikkitousen Deathmatch Survivor Final

Complete name : 2021.06.28.BJW.Ikkitousen.Deathmatch.Survivor.2021.Final.Tokyo.Korakuen.Hall.(Samurai.TV).mp4
Format : MPEG-4
Format profile : Base Media
Codec ID : isom
File size : 3.05 GiB
Duration : 2 h 34 min
Overall bit rate : 2 820 kb/s

Video
ID : 1
Format : AVC
Format/Info : Advanced Video
Duration : 2 h 34 min
Bit rate : 2 615 kb/s
Width : 1 280 pixels
Height : 720 pixels
Display aspect ratio : 16:9
Frame rate mode : Constant
Frame rate : 60.000 FPS
Color space : YUV
Chroma subsampling : 4:2:0
Bit depth : 8 bits
Scan type : Progressive
Bits/(Pixel*Frame) : 0.047
Stream size : 2.83 GiB (93%)
Color primaries : BT.709
Transfer characteristics : BT.709
Matrix coefficients : BT.709
Codec configuration box : avc

BJW Ikkitousen Deathmatch Survivor Final

Audio
ID : 2
Format : AAC LC
Format/Info : Advanced Audio
Codec ID : mp4a-40-2
Duration : 2 h 34 min
Bit rate mode : Constant
Bit rate : 192 kb/s
Channel(s) : 2 channels
Channel layout : L R
Sampling rate : 48.0 kHz
Frame rate : 46.875 FPS (1024 SPF)
Compression mode : Lossy
Stream size : 213 MiB (7%)
Default : Yes
Alternate group : 1

BJW Ikkitousen Deathmatch Survivor Final

Complete name : 2021.06.28.BJW.Ikkitousen.Deathmatch.Survivor.2021.Final.Tokyo.Korakuen.Hall.(Samurai.TV).mp4
Format : MPEG-4
Format profile : Base Media
Codec ID : isom
File size : 3.05 GiB
Duration : 2 h 34 min
Overall bit rate : 2 820 kb/s

Video
ID : 1
Format : AVC
Format/Info : Advanced Video
Duration : 2 h 34 min
Bit rate : 2 615 kb/s
Width : 1 280 pixels
Height : 720 pixels
Display aspect ratio : 16:9
Frame rate mode : Constant
Frame rate : 60.000 FPS
Color space : YUV
Chroma subsampling : 4:2:0
Bit depth : 8 bits
Scan type : Progressive
Bits/(Pixel*Frame) : 0.047
Stream size : 2.83 GiB (93%)
Color primaries : BT.709
Transfer characteristics : BT.709
Matrix coefficients : BT.709
Codec configuration box : avc

BJW Ikkitousen Deathmatch Survivor Final

Audio
ID : 2
Format : AAC LC
Format/Info : Advanced Audio
Codec ID : mp4a-40-2
Duration : 2 h 34 min
Bit rate mode : Constant
Bit rate : 192 kb/s
Channel(s) : 2 channels
Channel layout : L R
Sampling rate : 48.0 kHz
Frame rate : 46.875 FPS (1024 SPF)
Compression mode : Lossy
Stream size : 213 MiB (7%)
Default : Yes
Alternate group : 1

BJW Ikkitousen Deathmatch Survivor Final

Complete name : 2021.06.28.BJW.Ikkitousen.Deathmatch.Survivor.2021.Final.Tokyo.Korakuen.Hall.(Samurai.TV).mp4
Format : MPEG-4
Format profile : Base Media
Codec ID : isom
File size : 3.05 GiB
Duration : 2 h 34 min
Overall bit rate : 2 820 kb/s

Video
ID : 1
Format : AVC
Format/Info : Advanced Video
Duration : 2 h 34 min
Bit rate : 2 615 kb/s
Width : 1 280 pixels
Height : 720 pixels
Display aspect ratio : 16:9
Frame rate mode : Constant
Frame rate : 60.000 FPS
Color space : YUV
Chroma subsampling : 4:2:0
Bit depth : 8 bits
Scan type : Progressive
Bits/(Pixel*Frame) : 0.047
Stream size : 2.83 GiB (93%)
Color primaries : BT.709
Transfer characteristics : BT.709
Matrix coefficients : BT.709
Codec configuration box : avc

BJW Ikkitousen Deathmatch Survivor Final

Audio
ID : 2
Format : AAC LC
Format/Info : Advanced Audio
Codec ID : mp4a-40-2
Duration : 2 h 34 min
Bit rate mode : Constant
Bit rate : 192 kb/s
Channel(s) : 2 channels
Channel layout : L R
Sampling rate : 48.0 kHz
Frame rate : 46.875 FPS (1024 SPF)
Compression mode : Lossy
Stream size : 213 MiB (7%)
Default : Yes
Alternate group : 1

BJW Ikkitousen Deathmatch Survivor Final

Complete name : 2021.06.28.BJW.Ikkitousen.Deathmatch.Survivor.2021.Final.Tokyo.Korakuen.Hall.(Samurai.TV).mp4
Format : MPEG-4
Format profile : Base Media
Codec ID : isom
File size : 3.05 GiB
Duration : 2 h 34 min
Overall bit rate : 2 820 kb/s

Video
ID : 1
Format : AVC
Format/Info : Advanced Video
Duration : 2 h 34 min
Bit rate : 2 615 kb/s
Width : 1 280 pixels
Height : 720 pixels
Display aspect ratio : 16:9
Frame rate mode : Constant
Frame rate : 60.000 FPS
Color space : YUV
Chroma subsampling : 4:2:0
Bit depth : 8 bits
Scan type : Progressive
Bits/(Pixel*Frame) : 0.047
Stream size : 2.83 GiB (93%)
Color primaries : BT.709
Transfer characteristics : BT.709
Matrix coefficients : BT.709
Codec configuration box : avc

BJW Ikkitousen Deathmatch Survivor Final

Audio
ID : 2
Format : AAC LC
Format/Info : Advanced Audio
Codec ID : mp4a-40-2
Duration : 2 h 34 min
Bit rate mode : Constant
Bit rate : 192 kb/s
Channel(s) : 2 channels
Channel layout : L R
Sampling rate : 48.0 kHz
Frame rate : 46.875 FPS (1024 SPF)
Compression mode : Lossy
Stream size : 213 MiB (7%)
Default : Yes
Alternate group : 1

BJW Ikkitousen Deathmatch Survivor Final

Complete name : 2021.06.28.BJW.Ikkitousen.Deathmatch.Survivor.2021.Final.Tokyo.Korakuen.Hall.(Samurai.TV).mp4
Format : MPEG-4
Format profile : Base Media
Codec ID : isom
File size : 3.05 GiB
Duration : 2 h 34 min
Overall bit rate : 2 820 kb/s

Video
ID : 1
Format : AVC
Format/Info : Advanced Video
Duration : 2 h 34 min
Bit rate : 2 615 kb/s
Width : 1 280 pixels
Height : 720 pixels
Display aspect ratio : 16:9
Frame rate mode : Constant
Frame rate : 60.000 FPS
Color space : YUV
Chroma subsampling : 4:2:0
Bit depth : 8 bits
Scan type : Progressive
Bits/(Pixel*Frame) : 0.047
Stream size : 2.83 GiB (93%)
Color primaries : BT.709
Transfer characteristics : BT.709
Matrix coefficients : BT.709
Codec configuration box : avc

BJW Ikkitousen Deathmatch Survivor Final

Audio
ID : 2
Format : AAC LC
Format/Info : Advanced Audio
Codec ID : mp4a-40-2
Duration : 2 h 34 min
Bit rate mode : Constant
Bit rate : 192 kb/s
Channel(s) : 2 channels
Channel layout : L R
Sampling rate : 48.0 kHz
Frame rate : 46.875 FPS (1024 SPF)
Compression mode : Lossy
Stream size : 213 MiB (7%)
Default : Yes
Alternate group : 1

BJW Ikkitousen Deathmatch Survivor Final

Complete name : 2021.06.28.BJW.Ikkitousen.Deathmatch.Survivor.2021.Final.Tokyo.Korakuen.Hall.(Samurai.TV).mp4
Format : MPEG-4
Format profile : Base Media
Codec ID : isom
File size : 3.05 GiB
Duration : 2 h 34 min
Overall bit rate : 2 820 kb/s

Video
ID : 1
Format : AVC
Format/Info : Advanced Video
Duration : 2 h 34 min
Bit rate : 2 615 kb/s
Width : 1 280 pixels
Height : 720 pixels
Display aspect ratio : 16:9
Frame rate mode : Constant
Frame rate : 60.000 FPS
Color space : YUV
Chroma subsampling : 4:2:0
Bit depth : 8 bits
Scan type : Progressive
Bits/(Pixel*Frame) : 0.047
Stream size : 2.83 GiB (93%)
Color primaries : BT.709
Transfer characteristics : BT.709
Matrix coefficients : BT.709
Codec configuration box : avc

BJW Ikkitousen Deathmatch Survivor Final

Audio
ID : 2
Format : AAC LC
Format/Info : Advanced Audio
Codec ID : mp4a-40-2
Duration : 2 h 34 min
Bit rate mode : Constant
Bit rate : 192 kb/s
Channel(s) : 2 channels
Channel layout : L R
Sampling rate : 48.0 kHz
Frame rate : 46.875 FPS (1024 SPF)
Compression mode : Lossy
Stream size : 213 MiB (7%)
Default : Yes
Alternate group : 1

BJW Ikkitousen Deathmatch Survivor Final

Complete name : 2021.06.28.BJW.Ikkitousen.Deathmatch.Survivor.2021.Final.Tokyo.Korakuen.Hall.(Samurai.TV).mp4
Format : MPEG-4
Format profile : Base Media
Codec ID : isom
File size : 3.05 GiB
Duration : 2 h 34 min
Overall bit rate : 2 820 kb/s

Video
ID : 1
Format : AVC
Format/Info : Advanced Video
Duration : 2 h 34 min
Bit rate : 2 615 kb/s
Width : 1 280 pixels
Height : 720 pixels
Display aspect ratio : 16:9
Frame rate mode : Constant
Frame rate : 60.000 FPS
Color space : YUV
Chroma subsampling : 4:2:0
Bit depth : 8 bits
Scan type : Progressive
Bits/(Pixel*Frame) : 0.047
Stream size : 2.83 GiB (93%)
Color primaries : BT.709
Transfer characteristics : BT.709
Matrix coefficients : BT.709
Codec configuration box : avc

BJW Ikkitousen Deathmatch Survivor Final

Audio
ID : 2
Format : AAC LC
Format/Info : Advanced Audio
Codec ID : mp4a-40-2
Duration : 2 h 34 min
Bit rate mode : Constant
Bit rate : 192 kb/s
Channel(s) : 2 channels
Channel layout : L R
Sampling rate : 48.0 kHz
Frame rate : 46.875 FPS (1024 SPF)
Compression mode : Lossy
Stream size : 213 MiB (7%)
Default : Yes
Alternate group : 1

BJW Ikkitousen Deathmatch Survivor Final

Complete name : 2021.06.28.BJW.Ikkitousen.Deathmatch.Survivor.2021.Final.Tokyo.Korakuen.Hall.(Samurai.TV).mp4
Format : MPEG-4
Format profile : Base Media
Codec ID : isom
File size : 3.05 GiB
Duration : 2 h 34 min
Overall bit rate : 2 820 kb/s

Video
ID : 1
Format : AVC
Format/Info : Advanced Video
Duration : 2 h 34 min
Bit rate : 2 615 kb/s
Width : 1 280 pixels
Height : 720 pixels
Display aspect ratio : 16:9
Frame rate mode : Constant
Frame rate : 60.000 FPS
Color space : YUV
Chroma subsampling : 4:2:0
Bit depth : 8 bits
Scan type : Progressive
Bits/(Pixel*Frame) : 0.047
Stream size : 2.83 GiB (93%)
Color primaries : BT.709
Transfer characteristics : BT.709
Matrix coefficients : BT.709
Codec configuration box : avc

BJW Ikkitousen Deathmatch Survivor Final

Audio
ID : 2
Format : AAC LC
Format/Info : Advanced Audio
Codec ID : mp4a-40-2
Duration : 2 h 34 min
Bit rate mode : Constant
Bit rate : 192 kb/s
Channel(s) : 2 channels
Channel layout : L R
Sampling rate : 48.0 kHz
Frame rate : 46.875 FPS (1024 SPF)
Compression mode : Lossy
Stream size : 213 MiB (7%)
Default : Yes
Alternate group : 1

BJW Ikkitousen Deathmatch Survivor Final

 

[collapse]

 

 

https://dx-tv.com/

Leave a Reply

Your email address will not be published. Required fields are marked *

This site uses Akismet to reduce spam. Learn how your comment data is processed.

Previous Post
ICW GOTTA EARN IT IN THE PIT

ICW Wrestling GOTTA EARN IT IN THE PIT Online Free

Next Post
Tokyo Joshi Pro

Tokyo Joshi Pro Spring Tour 21 720p Online Free