BJW DDT New Years Eve Wrestling 2020 12 31 DX-TV

BJW DDT New Years Eve Wrestling 2020 12 31 DX-TV

BJW DDT New Years Eve Wrestling

 BJW DDT New Years Eve Wrestling

 

Download Links with premium High Speed   

 

 

dropapk.to

http://shrt10.com/Z5jcs

 

 

nitroflare.com

http://shrt10.com/NBB8I

 

 

rapidgator.net

http://shrt10.com/ZthFjCkqX

 

 

uploaded.net

http://shrt10.com/1Enx9J

 

 

uploadgig.com

http://shrt10.com/PIJkTn

 

Watch online BJW DDT New Years Eve Wrestling

 

Server 1

 

 

 

 

BJW DDT New Years Eve Wrestling

 

 

 

 

Server-2

 

 

 

 

watch now

 

 

Uploaded By Site DX-TV.com

 

 

Complete name : 2020.12.31.BJW.DDT.New.Year’s.Eve.Wrestling.2020.Tokyo.Korakuen.Hall.(Samurai.TV).mp4
Format : MPEG-4
Format profile : Base Media
Codec ID : isom
File size : 3.23 GiB
Duration : 3 h 30 min
Overall bit rate mode : Variable
Overall bit rate : 2 196 kb/s
Writing application : Lavf58.12.100

BJW DDT New Years  Wrestling

Video
ID : 1
Format : AVC
Format/Info : Advanced Video
Duration : 3 h 30 min
Bit rate mode : Variable
Bit rate : 2 058 kb/s
Maximum bit rate : 6 144 kb/s
Width : 1 280 pixels
Height : 720 pixels
Display aspect ratio : 16:9
Frame rate mode : Constant
Frame rate : 60.000 FPS
Color space : YUV
Chroma subsampling : 4:2:0
Bit depth : 8 bits
Scan type : Progressive
Bits/(Pixel*Frame) : 0.037
Stream size : 3.02 GiB (94%)
Codec configuration box : avc

BJW DDT New Years Eve  

Audio
ID : 2
Format : AAC LC
Format/Info : Advanced Audio
Codec ID : mp4a-40-2
Duration : 3 h 30 min
Duration_LastFrame : -4 ms
Bit rate mode : Constant
Bit rate : 129 kb/s
Channel(s) : 2 channels
Channel layout : L R
Sampling rate : 44.1 kHz
Frame rate : 43.066 FPS (1024 SPF)
Compression mode : Lossy
Stream size : 193 MiB (6%)
Default : Yes
Alternate group : 1

BJW DDT New Years  

Audio
ID : 2
Format : AAC LC
Format/Info : Advanced Audio
Codec ID : mp4a-40-2
Duration : 3 h 30 min
Duration_LastFrame : -4 ms
Bit rate mode : Constant
Bit rate : 129 kb/s
Channel(s) : 2 channels
Channel layout : L R
Sampling rate : 44.1 kHz
Frame rate : 43.066 FPS (1024 SPF)
Compression mode : Lossy
Stream size : 193 MiB (6%)
Default : Yes
Alternate group : 1

 

https://dx-tv.com/

Leave a Reply

Your email address will not be published. Required fields are marked *

This site uses Akismet to reduce spam. Learn how your comment data is processed.