BJW 2021 01 04 Death Match King Death DX-TV

BJW 2021 01 04 Death Match King Death DX-TV

BJW 2021 01 04

 BJW 2021 01 04

 

Download BJW 2021 Links with premium High Speed   

 

 

dropapk.to

http://shrt10.com/DH6nWeYsO

 

 

nitroflare.com

http://shrt10.com/w5PewdS

 

 

rapidgator.net

http://shrt10.com/GyRA3

 

 

uploaded.net

http://shrt10.com/MZRUeD5

 

 

uploadgig.com

http://shrt10.com/S5UeffTOl

 

 

 

Uploaded By Site DX-TV.com

 

 

Complete name : 01 Kazuki Hashimoto & Takuho Kato vs. Kosuke Sato & Tatsuhiko Yoshino.mp4
Format : MPEG-4
Format profile : Base Media
Codec ID : isom (mp41/avc1)
File size : 174 MiB
Duration : 11 min 29 s
Overall bit rate mode : Variable
Overall bit rate : 2 120 kb/s

BJW 2021

Video
ID : 2
Format : AVC
Codec ID : avc1
Codec ID/Info : Advanced Video
Duration : 11 min 29 s
Bit rate : 2 000 kb/s
Width : 640 pixels
Height : 360 pixels
Display aspect ratio : 16:9
Frame rate mode : Variable
Frame rate : 30.000 FPS
Minimum frame rate : 29.990 FPS
Maximum frame rate : 30.010 FPS
Color space : YUV
Chroma subsampling : 4:2:0
Bit depth : 8 bits
Scan type : Progressive
Bits/(Pixel*Frame) : 0.289
Stream size : 164 MiB (94%)
Codec configuration box : avc

BJW 2021

Audio
ID : 1
Format : AAC LC
Format/Info : Advanced Audio Codec Low Complexity
Codec ID : mp4a-40-2
Duration : 11 min 29 s
Bit rate mode : Variable
Bit rate : 110 kb/s
Maximum bit rate : 250 kb/s
Channel(s) : 2 channels
Channel layout : L R
Sampling rate : 44.1 kHz
Frame rate : 43.066 FPS (1024 SPF)
Compression mode : Lossy
Stream size : 9.00 MiB (5%)
Language : English
mdhd_Duration : 689075

BJW 2021

Audio
ID : 1
Format : AAC LC
Format/Info : Advanced Audio Codec Low Complexity
Codec ID : mp4a-40-2
Duration : 11 min 29 s
Bit rate mode : Variable
Bit rate : 110 kb/s
Maximum bit rate : 250 kb/s
Channel(s) : 2 channels
Channel layout : L R
Sampling rate : 44.1 kHz
Frame rate : 43.066 FPS (1024 SPF)
Compression mode : Lossy
Stream size : 9.00 MiB (5%)
Language : English
mdhd_Duration : 689075

https://dx-tv.com/

You May Also Like