BJW 2020 08 30 LAST BUNTAI Goodbye Yokohama Buntai

Watch BJW 2020 08 30 LAST BUNTAI Goodbye Yokohama Buntai DX-TV

 

BJW 2020 08 30 LAST BUNTAI Goodbye

 

 BJW 2020 08 30 LAST BUNTAI Goodbye

2020 08 30 LAST BUNTAI Goodbye   

 

 

 

[su_expand more_text=”Show More Info” less_text=”Close all Info” height=”30″ text_color=”#000000″ link_color=”#e25f8b” link_style=”button” more_icon=”icon: arrow-down” less_icon=”icon: arrow-up”]

 

Name of the event:  Last Buntai   Goodbye Yokohama Buntai
Date: 30.08.2020
Promotion: Big Japan Pro-Wrestling
Type: TV-Show
Location: Yokohama, Kanagawa, Japan
Arena: Yokohama Bunka Gymnasium
Attendance: 1.045
Broadcast type: Aufzeichnung
Broadcast date: 06.09.2020

BJW 2020 08 30 LAST BUNTAI Goodbye

 

Complete name : 2020.08.30.LAST.BUNTAI.Goodbye.Yokohama.Buntai.(Samurai.TV).mp4
Format : MPEG-4
Format profile : Base Media
Codec ID : isom
File size : 3.43 GiB
Duration : 2 h 54 min
Overall bit rate : 2 820 kb/s
Writing application : Lavf58

Video
ID : 1
Format : AVC
Codec ID/Info : Advanced
Duration : 2 h 54 min
Bit rate : 2 615 kb/s
Width : 1 280 pixels
Height : 720 pixels
Display aspect ratio : 16:9
rate mode : Constant
Frame rate : 60.000 FPS
Color space : YUV
Chroma : 4:2:0
Bit depth : 8 bits
Scan type : Progressive
Bits/(Pixel*Frame) : 0.047
Stream size : 3.18 GiB (93%)

BJW 2020 08 30 LAST BUNTAI Goodbye

Audio
ID : 2
Format : AAC LC
Format/Info : Advanced Audio
Codec ID : mp4a-40-2
Duration : 2 h 54 min
Bit rate mode : Constant
Bit rate : 192 kb/s  2020 08 30 LAST BUNTAI Goodbye
Channel(s) : 2 channels
Channel layout : L R
Sampling rate : 44.1 kHz
Frame rate : 43.066 FPS (1024 SPF)
Compression mode : Lossy
Stream size : 239 MiB (7%)
Default : Yes
Alternate group : 1

BJW 2020 08 30 LAST BUNTAI Goodbye

 

Six Man Team Match
Azure Revolution (Maya Yukihi & Risa Sera) & Suzu Suzuki defeat ,

Dropkickers (Tsukasa Fujimoto & Tsukushi) & Ibuki Hoshi (10:00)

 2020 08 30 LAST BUNTAI Goodbye

Man Tag Team Match

 

 

 2020 08 30 LAST BUNTAI Goodbye   

 

 

[/su_expand]

 

 

 

Watch online

 

 

[su_expand more_text=”Open Videos Online” less_text=”Close Videos” height=”0″ text_color=”#0859fe” link_color=”#a74a69″ link_style=”button” more_icon=”icon: play” less_icon=”icon: stop”]

 

 

Server 1

 

 

 

 

watch now

 

 

 2020 08 30 LAST BUNTAI Goodbye

 

Server-2

 

 

 

watch now

 

 

 

 

Server-3

 

 

 

BJW 2020 08 30 LAST BUNTAI Goodbye

 

 

 

[/su_expand]
 

Uploaded By Site DX-TV.com

 

 

 

Download Links with High Speed   

 

 

[su_expand more_text=”Open Download Links” less_text=”Close all Links” height=”0″ text_color=”#4b9a3e” link_color=”#1b3fa8″ link_style=”button” more_icon=”icon: link” less_icon=”icon: unlink”]

nitroflare.com

 

 

 

rapidgator.net

 

 

 

uploadgig.com

 

 

[/su_expand]
dx-tv.com

 

urlfree.net

Leave a Reply

Your email address will not be published. Required fields are marked *

This site uses Akismet to reduce spam. Learn how your comment data is processed.