BJW 2020 05 26 Crisis Survivor Vol 1

Watch BJW 2020 05 26 Crisis Survivor Vol 1 DX-TV

 

BJW

 BJW
 

 

BJW 2020 05 26 Crisis Survivor Vol 1

 

 

Complete name : BJW 2020.05.26 – Crisis Survivor Vol.1 TV Match.mp4
Format : MPEG-4
Format profile : Base Media
Codec ID : BJW
File size : 1.32 GiB
Duration : 1 h 59 min
Overall bit rate : 1 572 kb/s

Video
ID : 1
Format : AVC
Codec ID/Info : BJW
Duration : 1 h 59 min
Bit rate : 1 501 kb/s
Width : 1 280 pixels
Height : 720 pixels
Display aspect ratio : 16:9
Frame rate mode : Variable
Frame rate : 30.000 FPS
Minimum frame rate : 29.412 FPS
Standard : Component
Color space : BJW
Chroma subsampling : 4:2:0
Bit depth : 8 bits
Scan type : Progressive
Bits/(Pixel*Frame) : 0.054
Stream size : 1.26 GiB (95%)
Color range : Limited
Color primaries : BT.709
Transfer characteristics : BT.709
Matrix coefficients : BJW
Codec configuration box : avcC

 

2020 05 26 Crisis Survivor

 

Audio
ID : 2
Format : AAC LC SBR PS
Commercial name : HE-AACv2
Format settings : BJW
Codec ID : mp4a-40-2
Duration : 1 h 59 min
Bit rate mode : Constant
Bit rate : 62.7 kb/s
Channel(s) : 2 channels
Channel layout : BJW
Sampling rate : 48.0 kHz
Frame rate : 23.438 FPS (2048 SPF)
Compression mode : Lossy
Stream size : 53.8 MiB (4%)
Default : Yes
Alternate group : 1

 

 

 

Watch online

 

 

Server 1

 

 

 

 

watch now

 

 

 

 

Server 2

 

 

 

watch now

 

 

 

BJW 2020 05 26 Crisis Survivor Vol 1

 

 

Uploaded By Site DX-TV.com

 

 

 

Download with premium account Links 

 

 

Keep2Share

 

 

nitroflare.com

 

 

rapidgator.net

 

 

uploadgig.com

 

 

 

dx-tv.com

 

urlfree.net

Leave a Reply

Your email address will not be published. Required fields are marked *

This site uses Akismet to reduce spam. Learn how your comment data is processed.