Best Of The Super Jr 27 Day 4: NJPW Online Nov 23 DX-TV

Watch Best Of The Super Jr 27 Day 4: NJPW Online Nov 23 DX-TV

Best Of The Super Jr 27 Day 4

 

 Best Of The Super Jr 27 Day 5

 

[su_expand more_text=”Show More Info” less_text=”Close all Info” height=”30″ text_color=”#000000″ link_color=”#e25f8b” link_style=”button” more_icon=”icon: arrow-down” less_icon=”icon: arrow-up”]

 

Best Of The Super Jr 27 Day 4

 

Complete name : NJPW.2020.11.23.Best.Of.The.Super.Jr.27.Day.4.WEB H264 DX-TV.mp4
Format : MPEG-4
Format profile : Base Media
Codec ID : isom
File size : 1.89 GiB
Duration : 2 h 18 min
Overall bit rate : 1 958 kb/s
Writing application : Lavf58.25

Best Of The Super Jr 27 Day 4

Video
ID : 1
Format : AVC
Duration : 2 h 18 min
Bit rate : 1 848 kb/s
Width : 960 pixels
Height : 540 pixels
Display aspect ratio : 16:9
Frame rate mode : Variable
Frame rate : 30.000 FPS
Color space : YUV
Chroma subsampling : 4:2:0
Bit depth : 8 bits
Scan type : Progressive
Bits/(Pixel*Frame) : 0.119
Stream size : 1.78 GiB
Color range : Limited
Color primaries : BT.601 PAL
Transfer characteristics : BT.601
Matrix coefficients : BT.470
Codec configuration box : avc

Watch Best Of The Super Jr 27 

Audio
ID : 2
Format : AAC LC
Format/Info : Advanced Audio
Codec ID : mp4a-40-2
Duration : 2 h 18 min
Bit rate mode : Constant
Bit rate : 99.9 kb/s
Channel(s) : 2 channels
Channel layout : L R
Sampling rate : 44.1 kHz
Frame rate : 43.066 FPS
Compression mode : Lossy
Stream size : 98.7 MiB (5%)
Default : Yes
Alternate group : 1

Best Of The Super Jr 27 Day 4

Robbie Eagles tried to start hot against BUSHI in the second tournament match of the night,

but was twice cut off as he looked for a dive, instead being speared with a tope suicida from the masked man.

When BUSHI tried to hang Eagles over the top rope for a dropkick though, Eagles read the move,

working free and spring boarding into the knee in a bid to set up the Ron Miller Special.

A low 619 helped Eagles’ assault on the knee, but BUSHI prevented a Turbo Backpack,

and created himself an opportunity hit his trademark apron DDT.  

Still, the Australian was hungry for victory and powered through the damage.

an impressive kick combo connected, and though his 450 only found canvas, a second Backpack attempt scored.

.and Eagles found the Ron Miller Special for an extended period before his opponent made the ropes. 

Looking for a finish, Eagles went for another springboard dropkick, but was struck out of midair by BUSHI.

who followed on the earlier apron DDT with a Canadian Destroyer. An MX followed to move BUSHI to four points. 

 

 

[/su_expand]

 

 

Watch online NJPW Best Of The Super Jr 27 Day 4

 

 

Server 1

 

 

 

 

 

 

 

 

Server-2

 

 

 

 

 

 

 

 

Uploaded By Site DX-TV.com

 

https://dx-tv.com/watch-njpw-best-of-the-super-jr-27-day-2-full-show-repay/

 

 

Download Free Links with normal and high Speed [ more 14 hosts ]  

 

[su_expand more_text=”Show Hosts Info” less_text=”Close all Info” height=”30″ text_color=”#000000″ link_color=”#e25f8b” link_style=”button” more_icon=”icon: arrow-down” less_icon=”icon: arrow-up”]

Best Of The Super Jr 27   

 

hexupload.net – clicknupload.co – www.multiup.org

– uptobox.com – anonfiles.com – userscloud.com –

dropapk.to alfafile.net – ddownload.com – rockfile.co

– 1fichier.com – filedown.org – katfile.com – filerio.in

 

 

[/su_expand]

 

 

http://shrt10.com/SKpYulIev
http://shrt10.com/SdH8P
http://shrt10.com/CuTU67
http://shrt10.com/yfAcVL
http://shrt10.com/PaWQnay3
http://shrt10.com/1HACep
http://shrt10.com/8VbKA
http://shrt10.com/FskAvURDM

 

 

 

 

Download Links with premium High Speed   

Best Of The Super Jr 27 Day 4

 

 

 

dropapk.to

 

 

 

nitroflare.com

 

 

 

rapidgator.net

 

 

 

uploaded.net

 

 

 

uploadgig.com

 

 

 

 

 

Leave a Reply

Your email address will not be published. Required fields are marked *

This site uses Akismet to reduce spam. Learn how your comment data is processed.