Bellator 252 Pitbull vs Carvalho 720p Full Show Online

Watch Bellator 252 Pitbull vs Carvalho 720p Full Show Online DX-TV

Bellator 252 Pitbull vs Carvalho

 

Bellator 252 Pitbull vs Carvalho

 

Bellator 252 Pitbull vs Carvalho 720p Full Show Online

 

 

 

 

Complete name : Bellator.252.Pitbull.vs.Carvalho.HDTV.x264-Star.mp4
Format : MPEG-4
Format profile : Base Media
Codec ID : mp42
File size : 899 MiB
Duration : 1 h 25 min
Overall bit rate : 1 463 kb/s

Bellator 252 Pitbull vs Carvalho

Video
ID : 1
Format : AVC
Duration : 1 h 25 min
Bit rate : 1 300 kb/s
Width : 720 pixels
Height : 480 pixels
Display aspect ratio : 16:9
Original display aspect rat : 16:9
Frame rate mode : Constant
Frame rate : 29.970 (30000/1001) FPS
Standard : NTSC
Color space : YUV
Chroma subsampling : 4:2:0
Bit depth : 8 bits
Scan type : Progressive
Bits/(Pixel*Frame) : 0.126
Stream size : 796 MiB (89%)
Color range : Limited
Color primaries : BT.709
Transfer characteristics : BT.709
Matrix coefficients : BT.709
Codec configuration box : avc

Bellator 252 Pitbull vs Carvalho

Audio
ID : 2
Format : AAC LC
Format/Info : Advanced Audio
Codec ID : mp4a-40-2
Duration : 1 h 25 min
Bit rate mode : Constant
Bit rate : 158 kb/s
Channel(s) : 2 channels
Channel layout : L R
Sampling rate : 48.0 kHz
Frame rate : 46.875 FPS (1024 SPF)
Compression mode : Lossy
Stream size : 97.3 MiB (11%)
Title : Stereo
Default : Yes
Alternate group : 1

 

HOW TO WATCH BELLATOR 252: “PITBULL” VS. CARVALHO TV, LIVE STREAM INFO

In the United States, the Bellator 252 prelims and main card are available on DAZN.

The main card is also available on CBS Sports Network.

In Canada, Bellator 252 is available on DAZN.

In Germany, the main card (1 a.m. CET) is available on DAZN.

Bellator 252 Pitbull vs Carvalho

The featherweight grand prix finally returns on Thursday night from the Mohegan .

Sun Arena in Uncasville, Conn., as 145- and 155-pound champion Patricio “Pitbull” .

Freire battles Rafael Carvalho in the quarterfinals in the main event of Bellator 252. 

Initially, Freire and Carvalho were set to meet at Bellator 241 on March 13 at the same venue.

The card went from having fans to not having them to being canceled altogether due to the beginning of the COVID-19 pandemic. 

Freire and Carvalho have shown a disdain for each other, leading into Bellator 252.

 

Bellator 252 Pitbull vs Carvalho 720p Full Show Online

 

Watch online

 

 

Server 1

 

 

 

 

 

 

 

252 Pitbull vs Carvalho

Server-2

 

 

 

 

 

 

 

Uploaded By Site DX-TV.com

 

 

 

 

Download Free Links with normal and high Speed [ more 14 hosts ]  

 

[su_expand more_text=”Show Hosts Info” less_text=”Close all Info” height=”30″ text_color=”#000000″ link_color=”#e25f8b” link_style=”button” more_icon=”icon: arrow-down” less_icon=”icon: arrow-up”]

 

 252 Pitbull vs Carvalho

hexupload.net – clicknupload.co – www.multiup.org – uptobox.com – anonfiles.com – userscloud.com – 

 

 

[/su_expand]

 

400p

 

http://shrt10.com/yxu74j
http://shrt10.com/lkxxKlW
http://shrt10.com/BqKSL9Id
http://shrt10.com/mbMz4
http://shrt10.com/StfJ5
http://shrt10.com/tulZIb
http://shrt10.com/SCHxsg
http://shrt10.com/Xne8Hzrgo

 

720p

 

http://shrt10.com/WTMSqlk
http://shrt10.com/z3220V
http://shrt10.com/oYQC38jR
http://shrt10.com/K8gi2
http://shrt10.com/xSAikqkL

 

 

Download Links with premium High Speed   

 

 

 

 

dropapk.to

http://shrt10.com/dgSCP0MK
http://shrt10.com/ALMuZ

 

 

nitroflare.com

http://shrt10.com/Yky784QC
http://shrt10.com/Mp4I1FAZ1

 

 

rapidgator.net

http://shrt10.com/41J1d
http://shrt10.com/paSL3iv

 

 

uploaded.net

http://shrt10.com/ZFoE2a
http://shrt10.com/k1k5C

 

 

uploadgig.com

http://shrt10.com/tCOJyuE3
http://shrt10.com/g1WMs

 

 

 

 

dx-tv.com

 

urlfree.net

You May Also Like

Leave a Reply

Your email address will not be published. Required fields are marked *

This site uses Akismet to reduce spam. Learn how your comment data is processed.