Bellator 251 Manhoef vs Anderson 1080p HDTV Star

Watch Bellator 251 Manhoef vs Anderson 1080p HDTV Star DX-TV

Bellator 251 Manhoef vs Anderson

 

 Bellator 251 Manhoef vs Anderson
 

 

Bellator 251 Manhoef vs Anderson 1080p HDTV Star

 
Complete name : Bellator.251.Manhoef.vs.Anderson.1080p.HDTV.x264-Star.mkv
Format : Matroska
Format version : Version 4
File size : 7.12 GiB
Duration : 1 h 39 min
Overall bit rate : 10.2 Mb/s

Bellator 251 Manhoef vs Anderson

Video
ID : 1
Format : AVC
Format/Info : Advanced
Duration : 1 h 39 min
Bit rate : 10 000 kb/s
Width : 1 920 pixels
Height : 1 080 pixels
Display aspect ratio : 16:9
Frame rate mode : Constant
rate : 29.970 (30000/1001) FPS
Color space : YUV
Chroma subsampling : 4:2:0
Bit depth : 8 bits
Scan type : Progressive
Bits/(Pixel*Frame) : 0.161
Stream size : 6.80 GiB (96%)
Color range : Limited
Color primaries : BT.709
Transfer characteristics : BT.709
Matrix coefficients : BT.709

251 Manhoef vs Anderson

Audio
ID : 2
Format : AC-3
Format/Info : Audio Coding 3
Commercial name : Dolby Digital
Codec ID : A_AC3
Duration : 1 h 39 min
Bit rate mode : Constant
Bit rate : 256 kb/s
Channel(s) : 2 channels
Channel layout : L R
Sampling rate : 48.0 kHz
Frame rate : 31.250 FPS
Compression mode : Lossy
Delay relative to video : -5 ms
Stream size : 182 MiB (2%)
Title : Stereo
Service kind : Complete Main
Default : Yes
Forced : No

 

Bellator 251 Manhoef vs Anderson

Bellator 251 takes place on Thursday, Nov. 5.  Prelims get underway at 4:45 p.m. ET, followed by the main card at 7 p.m. ET.

Manhoef and Anderson should start about 8:30 p.m. ET, but the time depends on the length of the earlier fights.

Bellator returns with its latest offering on Thursday night when Melvin Manhoef takes on Corey .

Anderson in the main event of Bellator 251 from the Mohegan Sun Arena in Uncasville, Conn.

Manhoef, one of the most decorated strikers in combat history, returns for the first time in over one year.

After losing back-to-back contests, Manhoef has reeled off wins over Kent Kauppinen and Yannick Bahati,

whom he defeated via second-round TKO at Bellator 230 in October 2019.

Out of his 32 career victories, 29 of them have come inside the distance.

 

251 Manhoef vs Anderson 1080p HDTV Star

 

 

Watch online

 

 

Server 1

 

 

 

 

Bellator 251 Manhoef vs Anderson

 

 

 

 

Server-2

 

 

 

watch now

 

 

 

Uploaded By Site DX-TV.com

 

 

 

Download Links with premium High Speed   

 

 

 

nitroflare.com

 

 

 

rapidgator.net

 

 

 

 

dx-tv.com

 

urlfree.net

Leave a Reply

Your email address will not be published. Required fields are marked *

This site uses Akismet to reduce spam. Learn how your comment data is processed.