Bellator 247 Prelims Full Show Free Online

Watch Bellator 247 Prelims Full Show Free Online DX-TV

 

Bellator 247

 

 Bellator 247

Bellator 247 Prelims Full Show Free Online

 

After her statement victory, Kielholtz explained that she had planned for a stoppage win, but didn’t expect it to come quite as quickly as it did.

“Not this fast, but like I said, I have a plan, together with my trainer. Every time I step in this cage the plan works,” she said. “(Winning in 43 seconds) wasn’t it exactly, but that was a little bit like this, yeah!”

Kielholtz said she was proud to represent Bellator, and the promotion’s female athletes, in the main event after a late reshuffle saw them promoted to the headlining slot.

“We, as women fighters, we are the main event of this big event. I’m so blessed to stand here with all the things that are going on in the world right now,” she said.

Bellator 247

“To be the main event is like a dream. I’m still dreaming right now!”

As for her thoughts on a shot at Macfarlane’s title, Kielholtz may not have issued a direct callout of the champion, but she did make clear her desire to become a two-sport champion under the Bellator banner.

“We will see. It all depends on Bellator,” she said. “I’m just ready for anyone. I’m the kickboxing world champion in Bellator and I just want, next to my blue (Bellator kickboxing) belt, I want a red (Bellator MMA) belt.”

Bellator 247

Complete name : Bellator.247.Prelims.WEB.720p.x264.mp4
Format : MPEG-4
Format profile : Base Media
Codec ID : mp42
File size : 2.05 GiB
Duration : 2 h 29 min
bit rate mode : Variable
Overall bit rate : 1 969 kb/s

Bellator 247

Video
ID : 1
Format : AVC
Format/Info : Advanced
Duration : 2 h 29 min
Bit rate : 1 838 kb/s
Width : 1 280 pixels
Height : 720 pixels
Display aspect ratio : 16:9
Frame rate mode : Constant
Frame rate : 29.970 FPS
Color space : YUV
Chroma : 4:2:0
Bit depth : 8 bits
Scan type : Progressive
Bits/(Pixel*Frame) : 0.067
Stream size : 1.92 GiB (93%)
Color range : Limited
Color primaries : BT.709
Transfer characteristics : BT.709
Matrix coefficients : BT.709
Codec configuration box : avcC

Bellator 247

Audio
ID : 2
Format : AAC LC
Format/Info : Advanced Audio
Codec ID : mp4a-40-2
Duration : 2 h 29 min
Bit rate mode : Variable
Bit rate : 128 kb/s
Channel(s) : 2 channels
Channel layout : L R
Sampling rate : 44.1 kHz
Frame rate : 43.066 FPS
Compression mode : Lossy
Stream size : 137 MiB (7%)

 

 

 

Bellator 247 Prelims Full Show Free Online

 

 

 

 

Watch online

 

 

 

 

 

Server 1

 

 

 

 

watch now

 

 

 

 

Server-2

 

 

 

Bellator 247

 

 

 

 

Server-3

 

 

 

watch now

 

 

 

 

Uploaded By Site DX-TV.com

 

 

 

 

Download Free Links with normal and high Speed [ more 15 hosts ]  

 

 

 

http://shrt10.com/ODhgeg
http://shrt10.com/I2rvPe
http://shrt10.com/wXUBHK
http://shrt10.com/9LKPzZSbF
http://shrt10.com/0KsDIZy0U
http://shrt10.com/N2Bgq39mm
http://shrt10.com/IU5a8wqs9
http://shrt10.com/yduFgekY2
http://shrt10.com/J4qkXkIYz
http://shrt10.com/OPoxQEQI5
http://shrt10.com/iT8nXvQ

 

 

Bellator 247

 

Download Links with premium High Speed   

 

 

 

 

 

nitroflare.com

 

 

 

rapidgator.net

 

 

 

uploaded.net

 

 

 

uploadgig.com

 

 

 

 

 

dx-tv.com

 

urlfree.net

Leave a Reply

Your email address will not be published. Required fields are marked *

This site uses Akismet to reduce spam. Learn how your comment data is processed.