Bellator 207 720p HDTV VERUM

Bellator 207 720p HDTV VERUM

 

 

 

 


 

 

 

dx-tv.com

 

 

 

 

Complete name : Bellator.207.720p.HDTV.x264-VERUM.mkv
Format : Matroska
Format version : Version 4
File size : 3.51 GiB
Duration : 2 h 57 min
Overall bit rate : 2 831 kb/s
Tool : Custom Encoder

Video
ID : 1
Format : AVC
Codec ID : V_MPEG4/ISO/AVC
Duration : 2 h 57 min
Bit rate : 2 583 kb/s
Width : 1 280 pixels
Height : 720 pixels
Display aspect ratio : 16:9
Frame rate mode : Constant
Frame rate : 50.000 FPS
Color space : YUV
Chroma subsampling : 4:2:0
Bit depth : 8 bits
Scan type : Progressive
Bits/(Pixel*Frame) : 0.056
Stream size : 3.20 GiB (91%)
Language : English
Default : Yes
Forced : No
Color range : Limited
Matrix coefficients : BT.709

Audio
ID : 2
Format version : Version 1
Format profile : Layer 2
Codec ID : A_MPEG/L2
Codec ID/Hint : MP2
Duration : 2 h 57 min
Bit rate mode : Constant
Bit rate : 192 kb/s
Channel(s) : 2 channels
Sampling rate : 48.0 kHz
Compression mode : Lossy
Delay relative to video : -20 ms
Stream size : 244 MiB (7%)
Language : English
Default : Yes
Forced : No

 

 

 

Bellator 207 720p HDTV VERUM

 

 

 

 

Watch online

 

 

Waiting finish converting video

 

 

Server 1

 

 

 

 

 

 

 

 

 

 

 

 

 

 

 

Server 2

 

 

 

 

 

 

 

 

 

 

 

 

 

 

 

 

Uploaded By Site DX-TV.com

 

 

 

open rar file to see this password

 

 

 

 

The password : DX-TV.com

 

 

 

 

 

 

Uploaded.net + rapidgator.net

 

 

 

 

 
http://shrt10.com/KGnB9

 

 

 
http://shrt10.com/YSepA5zB
 

 

 

 

Bellator 207 720p HDTV VERUM

Leave a Reply

This site uses Akismet to reduce spam. Learn how your comment data is processed.