Bellator 195 Caldwell vs Higo 2018 03 03 HDTV 1080i ENG dds

Bellator 195 Caldwell vs Higo 2018 03 03 HDTV 1080i ENG dds

 

 

 

s

 

 

 

wwe

 

 

 

 

 

 

 
Complete name : Bellator 195 – Caldwell vs. Higo_HDTV 1080i_ENG-dds.ts
Format : MPEG-TS
File size : 9.03 GiB
Duration : 1h 32mn
Overall bit rate : 13.9 Mbps

Video
ID : 6461 (0x193D)
Menu ID : 777 (0x309)
Format version : Version 2
Format settings, BVOP : Yes
Duration : 1h 32mn
Bit rate mode : Variable
Bit rate : 12.9 Mbps
Nominal bit rate : 64.0 Mbps
Width : 1 920 pixels
Height : 1 080 pixels
Display aspect ratio : 16:9
Frame rate : 29.970 fps
Color space : YUV
Chroma subsampling : 4:2:0
Bit depth : 8 bits
Scan type : Interlaced
Scan order : Top Field First
Compression mode : Lossy
Bits/(Pixel*Frame) : 0.207
Stream size : 8.33 GiB (92%)

Audio
ID : 6462 (0x193E)
Menu ID : 777 (0x309)
Format : AC-3
Format/Info : Audio Coding 3
Mode extension : CM (complete main)
Codec ID : 129
Duration : 1h 32mn
Bit rate mode : Constant
Bit rate : 384 Kbps
Channel(s) : 2 channels
Channel positions : Front: L R
Sampling rate : 48.0 KHz
Bit depth : 16 bits
Compression mode : Lossy
Delay relative to video : 25ms
Stream size : 255 MiB (3%)
Language : English

 

 

Text #1
ID : 6461 (0x193D)608-1
Menu ID : 777 (0x309)
Format : EIA-608
Muxing mode : A/53 / DTVCC Transport
Muxing mode, more info : Muxed in Video #1
Duration : 1h 32mn
Stream size : 0.00 Byte (0%)

Text #2
ID : 6461 (0x193D)1
Menu ID : 777 (0x309)
Format : EIA-708
Muxing mode : A/53 / DTVCC Transport
Muxing mode, more info : Muxed in Video #1
Duration : 1h 32mn
Stream size : 0.00 Byte (0%)

Text #3
ID : 6461 (0x193D)608-1
Menu ID : 777 (0x309)
Format : EIA-608
Muxing mode : SCTE 20
Muxing mode, more info : Muxed in Video #1
Duration : 1h 32mn
Stream size : 0.00 Byte (0%)

 

 

 

 

Bellator 195 Caldwell vs Higo 2018 03 03 HDTV 1080i ENG dds

 

 

 

 

 

 

Uploaded By Site DX-TV.com

 

 

 

open rar file to see this password

 

 

 

 

The password is : DX-TV.com

 

 

 

 

1080i

 

 

 

 

 

Uploaded.net + rapidgator.net

 

 

 

 

 

 

http://shrt10.com/FgPvjfNz

 

 

http://shrt10.com/H2y6

 

 

http://shrt10.com/XdOG8kJM

 

 

http://shrt10.com/1G8C

 

 

http://shrt10.com/ua6jiIb

 

 

http://shrt10.com/skxx1QQ

 

 

http://shrt10.com/5HZF0

 

 

http://shrt10.com/enE8x

 

 

 

 

 

 

 

 

 

 

 

 

 

Bellator 195 Caldwell vs Higo 2018 03 03 HDTV 1080i ENG dds