All Elite Wrestling Dynamite 2020 11 18 1080p HDTV Star

Watch All Elite Wrestling Dynamite 2020 11 18 1080p HDTV Sta DX-TV

All Elite Wrestling Dynamite

 

All Elite Wrestling Dynamite

 

All Elite Wrestling Dynamite 2020 11 18 1080p HDTV Star

 

 

[su_expand more_text=”Show More Info” less_text=”Close all Info” height=”30″ text_color=”#000000″ link_color=”#e25f8b” link_style=”button” more_icon=”icon: arrow-down” less_icon=”icon: arrow-up”]

 

Complete name : All.Elite.Wrestling.Dynamite.2020.11.18.1080p.HDTV.x264-Star.mkv
Format : Matroska
Format version : Version 4
File size : 6.89 GiB
Duration : 1 h 36 min
Overall bit rate : 10.3 Mb/s

All Elite Wrestling Dynamite

Video
ID : 1
Format : AVC
Duration : 1 h 36 min
Bit rate : 10 000 kb/s
Width : 1 920 pixels
Height : 1 080 pixels
Display aspect ratio : 16:9
Frame rate mode : Constant
Frame rate : 29.970 FPS
Color space : YUV
Chroma subsampling : 4:2:0
Bit depth : 8 bits
Scan type : Progressive
Bits/(Pixel*Frame) : 0.161
Stream size : 6.58 GiB
Color range : Limited
Color primaries : BT.709
Transfer characteristics : BT.709
Matrix coefficients : BT.709

All Elite Wrestling Dynamite

Audio
ID : 2
Format : AC-3
Format/Info : Audio
Commercial name : Dolby
Codec ID : A_AC3
Duration : 1 h 36 min
Bit rate mode : Constant
Bit rate : 256 kb/s
Channel(s) : 2 channels
Channel layout : L R
Sampling rate : 48.0 kHz
Frame rate : 31.250 FPS
Compression mode : Lossy
Delay relative to video : -5 ms
Stream size : 176 MiB
Title : Stereo
Service kind : Complete
Default : Yes
Forced : No

All Elite Wrestling  

Team Taz, by contrast, is straight in your face and, quite clearly, behind your back when the opportunity arises.

Psychological warfare is not part of the playbook,

although Taz’s history shows he is capable, just a straight up beating to send the message required.

This Wednesday night, these four men will go at each other to settle a score in tag team fashion! Darby and Cody,

in their two outings as a team, are batting .

500 while Team Taz has a zero in the win column with one tag team outing under their belt. That bout, coincidentally.

was against Darby as well albeit with Jon Moxley as his partner for that Tornado Tag Team affair.

Who will assert their dominance in the main event of DYNAMITE this week?

Who will step up to be Darby’s first challenger for the TNT Title? Tune in Wednesday night to find out!

 

 

All Elite Wrestling Dynamite 2020 11 18 1080p HDTV Star

 

 

[/su_expand]

 

 

Watch online

 

 

Server 1

 

 

 

 

 

 

All Elite Wrestling 

 

Server-2

 

 

 

 

 

 

Server–3

 

 

 

Uploaded By Site DX-TV.com

 

All Elite Wrestling  

Download Links with premium High Speed   

 

 

 

 

nitroflare.com

 

 

 

rapidgator.net

 

 

 

 

 

 

dx-tv.com

 

urlfree.net

You May Also Like

Leave a Reply

Your email address will not be published. Required fields are marked *

This site uses Akismet to reduce spam. Learn how your comment data is processed.