AJPW Summer Action Series 2021 Day 3 Online Free

AJPW Summer Action Series 2021 07 15 Day 3 Online Free Replay DX-TV

AJPW Summer Action

 AJPW Summer Action

 

 

 

Download Links with High Speed


Dopapk

 

 

Show Links

 

http://shrt10.com/FmSeWQ2CX

 

[collapse]

 

 

Nitroflare

 

 

Show Links

 

http://shrt10.com/yfgIphUK3

 

[collapse]

 

 

Rapidgator

 

 

Show Links

 

http://shrt10.com/JmSvdHaeF

 

[collapse]

 

 

Uploaded

 

 

Show Links

 

http://shrt10.com/XfplM

 

[collapse]

 

 

Watch online

 

Server 1

 

 

 

 

AJPW Summer Action

 

 

 

 

Server-2

 

 

 

 

watch now

 

 

 

|Server-3

 

 

 

 

watch now

 

 

Uploaded By Site DX-TV.com

 

 

Show Info This Show

AJPW Summer Action

 

Complete name : 2021.07.15.AJPW.Summer.Action.Series.2021.Day.3.mp4
Format : MPEG-4
Format profile : Base Media
Codec ID : isom
File size : 1.76 GiB
Duration : 2 h 3 min
Overall bit rate mode : Variable
Overall bit rate : 2 040 kb/s

Video
ID : 1
Format : AVC
Format/Info : Advanced Video
Duration : 2 h 3 min
Duration_FirstFrame : 33 ms
Bit rate : 1 904 kb/s
Width : 1 280 pixels
Height : 720 pixels
Display aspect ratio : 16:9
Frame rate mode : Constant
Frame rate : 30.000 FPS
Color space : YUV
Chroma subsampling : 4:2:0
Bit depth : 8 bits
Scan type : Progressive
Bits/(Pixel*Frame) : 0.069
Stream size : 1.65 GiB (93%)
Codec configuration box : avc

AJPW Summer Action

Audio
ID : 2
Format : AAC LC
Codec ID : mp4a-40-2
Duration : 2 h 3 min
Bit rate mode : Variable
Bit rate : 125 kb/s
Maximum bit rate : 276 kb/s
Channel(s) : 2 channels
Channel layout : L R
Sampling rate : 44.1 kHz
Frame rate : 43.066 FPS (1024 SPF)
Compression mode : Lossy
Stream size : 111 MiB (6%)
mdhd_Duration : 7417684

AJPW Summer Action

Complete name : 2021.07.15.AJPW.Summer.Action.Series.2021.Day.3.mp4
Format : MPEG-4
Format profile : Base Media
Codec ID : isom
File size : 1.76 GiB
Duration : 2 h 3 min
Overall bit rate mode : Variable
Overall bit rate : 2 040 kb/s

Video
ID : 1
Format : AVC
Format/Info : Advanced Video
Duration : 2 h 3 min
Duration_FirstFrame : 33 ms
Bit rate : 1 904 kb/s
Width : 1 280 pixels
Height : 720 pixels
Display aspect ratio : 16:9
Frame rate mode : Constant
Frame rate : 30.000 FPS
Color space : YUV
Chroma subsampling : 4:2:0
Bit depth : 8 bits
Scan type : Progressive
Bits/(Pixel*Frame) : 0.069
Stream size : 1.65 GiB (93%)
Codec configuration box : avc

AJPW Summer Action

Audio
ID : 2
Format : AAC LC
Codec ID : mp4a-40-2
Duration : 2 h 3 min
Bit rate mode : Variable
Bit rate : 125 kb/s
Maximum bit rate : 276 kb/s
Channel(s) : 2 channels
Channel layout : L R
Sampling rate : 44.1 kHz
Frame rate : 43.066 FPS (1024 SPF)
Compression mode : Lossy
Stream size : 111 MiB (6%)
mdhd_Duration : 7417684

AJPW Summer Action

Complete name : 2021.07.15.AJPW.Summer.Action.Series.2021.Day.3.mp4
Format : MPEG-4
Format profile : Base Media
Codec ID : isom
File size : 1.76 GiB
Duration : 2 h 3 min
Overall bit rate mode : Variable
Overall bit rate : 2 040 kb/s

Video
ID : 1
Format : AVC
Format/Info : Advanced Video
Duration : 2 h 3 min
Duration_FirstFrame : 33 ms
Bit rate : 1 904 kb/s
Width : 1 280 pixels
Height : 720 pixels
Display aspect ratio : 16:9
Frame rate mode : Constant
Frame rate : 30.000 FPS
Color space : YUV
Chroma subsampling : 4:2:0
Bit depth : 8 bits
Scan type : Progressive
Bits/(Pixel*Frame) : 0.069
Stream size : 1.65 GiB (93%)
Codec configuration box : avc

AJPW Summer Action

Audio
ID : 2
Format : AAC LC
Codec ID : mp4a-40-2
Duration : 2 h 3 min
Bit rate mode : Variable
Bit rate : 125 kb/s
Maximum bit rate : 276 kb/s
Channel(s) : 2 channels
Channel layout : L R
Sampling rate : 44.1 kHz
Frame rate : 43.066 FPS (1024 SPF)
Compression mode : Lossy
Stream size : 111 MiB (6%)
mdhd_Duration : 7417684

AJPW Summer Action

Complete name : 2021.07.15.AJPW.Summer.Action.Series.2021.Day.3.mp4
Format : MPEG-4
Format profile : Base Media
Codec ID : isom
File size : 1.76 GiB
Duration : 2 h 3 min
Overall bit rate mode : Variable
Overall bit rate : 2 040 kb/s

Video
ID : 1
Format : AVC
Format/Info : Advanced Video
Duration : 2 h 3 min
Duration_FirstFrame : 33 ms
Bit rate : 1 904 kb/s
Width : 1 280 pixels
Height : 720 pixels
Display aspect ratio : 16:9
Frame rate mode : Constant
Frame rate : 30.000 FPS
Color space : YUV
Chroma subsampling : 4:2:0
Bit depth : 8 bits
Scan type : Progressive
Bits/(Pixel*Frame) : 0.069
Stream size : 1.65 GiB (93%)
Codec configuration box : avc

AJPW Summer Action

Audio
ID : 2
Format : AAC LC
Codec ID : mp4a-40-2
Duration : 2 h 3 min
Bit rate mode : Variable
Bit rate : 125 kb/s
Maximum bit rate : 276 kb/s
Channel(s) : 2 channels
Channel layout : L R
Sampling rate : 44.1 kHz
Frame rate : 43.066 FPS (1024 SPF)
Compression mode : Lossy
Stream size : 111 MiB (6%)
mdhd_Duration : 7417684

AJPW Summer Action

Complete name : 2021.07.15.AJPW.Summer.Action.Series.2021.Day.3.mp4
Format : MPEG-4
Format profile : Base Media
Codec ID : isom
File size : 1.76 GiB
Duration : 2 h 3 min
Overall bit rate mode : Variable
Overall bit rate : 2 040 kb/s

Video
ID : 1
Format : AVC
Format/Info : Advanced Video
Duration : 2 h 3 min
Duration_FirstFrame : 33 ms
Bit rate : 1 904 kb/s
Width : 1 280 pixels
Height : 720 pixels
Display aspect ratio : 16:9
Frame rate mode : Constant
Frame rate : 30.000 FPS
Color space : YUV
Chroma subsampling : 4:2:0
Bit depth : 8 bits
Scan type : Progressive
Bits/(Pixel*Frame) : 0.069
Stream size : 1.65 GiB (93%)
Codec configuration box : avc

AJPW Summer Action

Audio
ID : 2
Format : AAC LC
Codec ID : mp4a-40-2
Duration : 2 h 3 min
Bit rate mode : Variable
Bit rate : 125 kb/s
Maximum bit rate : 276 kb/s
Channel(s) : 2 channels
Channel layout : L R
Sampling rate : 44.1 kHz
Frame rate : 43.066 FPS (1024 SPF)
Compression mode : Lossy
Stream size : 111 MiB (6%)
mdhd_Duration : 7417684

AJPW Summer Action

Complete name : 2021.07.15.AJPW.Summer.Action.Series.2021.Day.3.mp4
Format : MPEG-4
Format profile : Base Media
Codec ID : isom
File size : 1.76 GiB
Duration : 2 h 3 min
Overall bit rate mode : Variable
Overall bit rate : 2 040 kb/s

Video
ID : 1
Format : AVC
Format/Info : Advanced Video
Duration : 2 h 3 min
Duration_FirstFrame : 33 ms
Bit rate : 1 904 kb/s
Width : 1 280 pixels
Height : 720 pixels
Display aspect ratio : 16:9
Frame rate mode : Constant
Frame rate : 30.000 FPS
Color space : YUV
Chroma subsampling : 4:2:0
Bit depth : 8 bits
Scan type : Progressive
Bits/(Pixel*Frame) : 0.069
Stream size : 1.65 GiB (93%)
Codec configuration box : avc

AJPW Summer Action

Audio
ID : 2
Format : AAC LC
Codec ID : mp4a-40-2
Duration : 2 h 3 min
Bit rate mode : Variable
Bit rate : 125 kb/s
Maximum bit rate : 276 kb/s
Channel(s) : 2 channels
Channel layout : L R
Sampling rate : 44.1 kHz
Frame rate : 43.066 FPS (1024 SPF)
Compression mode : Lossy
Stream size : 111 MiB (6%)
mdhd_Duration : 7417684

AJPW Summer Action

Complete name : 2021.07.15.AJPW.Summer.Action.Series.2021.Day.3.mp4
Format : MPEG-4
Format profile : Base Media
Codec ID : isom
File size : 1.76 GiB
Duration : 2 h 3 min
Overall bit rate mode : Variable
Overall bit rate : 2 040 kb/s

Video
ID : 1
Format : AVC
Format/Info : Advanced Video
Duration : 2 h 3 min
Duration_FirstFrame : 33 ms
Bit rate : 1 904 kb/s
Width : 1 280 pixels
Height : 720 pixels
Display aspect ratio : 16:9
Frame rate mode : Constant
Frame rate : 30.000 FPS
Color space : YUV
Chroma subsampling : 4:2:0
Bit depth : 8 bits
Scan type : Progressive
Bits/(Pixel*Frame) : 0.069
Stream size : 1.65 GiB (93%)
Codec configuration box : avc

AJPW Summer Action

Audio
ID : 2
Format : AAC LC
Codec ID : mp4a-40-2
Duration : 2 h 3 min
Bit rate mode : Variable
Bit rate : 125 kb/s
Maximum bit rate : 276 kb/s
Channel(s) : 2 channels
Channel layout : L R
Sampling rate : 44.1 kHz
Frame rate : 43.066 FPS (1024 SPF)
Compression mode : Lossy
Stream size : 111 MiB (6%)
mdhd_Duration : 7417684

AJPW Summer Action

Complete name : 2021.07.15.AJPW.Summer.Action.Series.2021.Day.3.mp4
Format : MPEG-4
Format profile : Base Media
Codec ID : isom
File size : 1.76 GiB
Duration : 2 h 3 min
Overall bit rate mode : Variable
Overall bit rate : 2 040 kb/s

Video
ID : 1
Format : AVC
Format/Info : Advanced Video
Duration : 2 h 3 min
Duration_FirstFrame : 33 ms
Bit rate : 1 904 kb/s
Width : 1 280 pixels
Height : 720 pixels
Display aspect ratio : 16:9
Frame rate mode : Constant
Frame rate : 30.000 FPS
Color space : YUV
Chroma subsampling : 4:2:0
Bit depth : 8 bits
Scan type : Progressive
Bits/(Pixel*Frame) : 0.069
Stream size : 1.65 GiB (93%)
Codec configuration box : avc

AJPW Summer Action

Audio
ID : 2
Format : AAC LC
Codec ID : mp4a-40-2
Duration : 2 h 3 min
Bit rate mode : Variable
Bit rate : 125 kb/s
Maximum bit rate : 276 kb/s
Channel(s) : 2 channels
Channel layout : L R
Sampling rate : 44.1 kHz
Frame rate : 43.066 FPS (1024 SPF)
Compression mode : Lossy
Stream size : 111 MiB (6%)
mdhd_Duration : 7417684

AJPW Summer Action

Complete name : 2021.07.15.AJPW.Summer.Action.Series.2021.Day.3.mp4
Format : MPEG-4
Format profile : Base Media
Codec ID : isom
File size : 1.76 GiB
Duration : 2 h 3 min
Overall bit rate mode : Variable
Overall bit rate : 2 040 kb/s

Video
ID : 1
Format : AVC
Format/Info : Advanced Video
Duration : 2 h 3 min
Duration_FirstFrame : 33 ms
Bit rate : 1 904 kb/s
Width : 1 280 pixels
Height : 720 pixels
Display aspect ratio : 16:9
Frame rate mode : Constant
Frame rate : 30.000 FPS
Color space : YUV
Chroma subsampling : 4:2:0
Bit depth : 8 bits
Scan type : Progressive
Bits/(Pixel*Frame) : 0.069
Stream size : 1.65 GiB (93%)
Codec configuration box : avc

AJPW Summer Action

Audio
ID : 2
Format : AAC LC
Codec ID : mp4a-40-2
Duration : 2 h 3 min
Bit rate mode : Variable
Bit rate : 125 kb/s
Maximum bit rate : 276 kb/s
Channel(s) : 2 channels
Channel layout : L R
Sampling rate : 44.1 kHz
Frame rate : 43.066 FPS (1024 SPF)
Compression mode : Lossy
Stream size : 111 MiB (6%)
mdhd_Duration : 7417684

AJPW Summer Action

Complete name : 2021.07.15.AJPW.Summer.Action.Series.2021.Day.3.mp4
Format : MPEG-4
Format profile : Base Media
Codec ID : isom
File size : 1.76 GiB
Duration : 2 h 3 min
Overall bit rate mode : Variable
Overall bit rate : 2 040 kb/s

Video
ID : 1
Format : AVC
Format/Info : Advanced Video
Duration : 2 h 3 min
Duration_FirstFrame : 33 ms
Bit rate : 1 904 kb/s
Width : 1 280 pixels
Height : 720 pixels
Display aspect ratio : 16:9
Frame rate mode : Constant
Frame rate : 30.000 FPS
Color space : YUV
Chroma subsampling : 4:2:0
Bit depth : 8 bits
Scan type : Progressive
Bits/(Pixel*Frame) : 0.069
Stream size : 1.65 GiB (93%)
Codec configuration box : avc

AJPW Summer Action

Audio
ID : 2
Format : AAC LC
Codec ID : mp4a-40-2
Duration : 2 h 3 min
Bit rate mode : Variable
Bit rate : 125 kb/s
Maximum bit rate : 276 kb/s
Channel(s) : 2 channels
Channel layout : L R
Sampling rate : 44.1 kHz
Frame rate : 43.066 FPS (1024 SPF)
Compression mode : Lossy
Stream size : 111 MiB (6%)
mdhd_Duration : 7417684

AJPW Summer Action

Complete name : 2021.07.15.AJPW.Summer.Action.Series.2021.Day.3.mp4
Format : MPEG-4
Format profile : Base Media
Codec ID : isom
File size : 1.76 GiB
Duration : 2 h 3 min
Overall bit rate mode : Variable
Overall bit rate : 2 040 kb/s

Video
ID : 1
Format : AVC
Format/Info : Advanced Video
Duration : 2 h 3 min
Duration_FirstFrame : 33 ms
Bit rate : 1 904 kb/s
Width : 1 280 pixels
Height : 720 pixels
Display aspect ratio : 16:9
Frame rate mode : Constant
Frame rate : 30.000 FPS
Color space : YUV
Chroma subsampling : 4:2:0
Bit depth : 8 bits
Scan type : Progressive
Bits/(Pixel*Frame) : 0.069
Stream size : 1.65 GiB (93%)
Codec configuration box : avc

AJPW Summer Action

Audio
ID : 2
Format : AAC LC
Codec ID : mp4a-40-2
Duration : 2 h 3 min
Bit rate mode : Variable
Bit rate : 125 kb/s
Maximum bit rate : 276 kb/s
Channel(s) : 2 channels
Channel layout : L R
Sampling rate : 44.1 kHz
Frame rate : 43.066 FPS (1024 SPF)
Compression mode : Lossy
Stream size : 111 MiB (6%)
mdhd_Duration : 7417684

AJPW Summer Action

Complete name : 2021.07.15.AJPW.Summer.Action.Series.2021.Day.3.mp4
Format : MPEG-4
Format profile : Base Media
Codec ID : isom
File size : 1.76 GiB
Duration : 2 h 3 min
Overall bit rate mode : Variable
Overall bit rate : 2 040 kb/s

Video
ID : 1
Format : AVC
Format/Info : Advanced Video
Duration : 2 h 3 min
Duration_FirstFrame : 33 ms
Bit rate : 1 904 kb/s
Width : 1 280 pixels
Height : 720 pixels
Display aspect ratio : 16:9
Frame rate mode : Constant
Frame rate : 30.000 FPS
Color space : YUV
Chroma subsampling : 4:2:0
Bit depth : 8 bits
Scan type : Progressive
Bits/(Pixel*Frame) : 0.069
Stream size : 1.65 GiB (93%)
Codec configuration box : avc

AJPW Summer Action

Audio
ID : 2
Format : AAC LC
Codec ID : mp4a-40-2
Duration : 2 h 3 min
Bit rate mode : Variable
Bit rate : 125 kb/s
Maximum bit rate : 276 kb/s
Channel(s) : 2 channels
Channel layout : L R
Sampling rate : 44.1 kHz
Frame rate : 43.066 FPS (1024 SPF)
Compression mode : Lossy
Stream size : 111 MiB (6%)
mdhd_Duration : 7417684

AJPW Summer Action

Complete name : 2021.07.15.AJPW.Summer.Action.Series.2021.Day.3.mp4
Format : MPEG-4
Format profile : Base Media
Codec ID : isom
File size : 1.76 GiB
Duration : 2 h 3 min
Overall bit rate mode : Variable
Overall bit rate : 2 040 kb/s

Video
ID : 1
Format : AVC
Format/Info : Advanced Video
Duration : 2 h 3 min
Duration_FirstFrame : 33 ms
Bit rate : 1 904 kb/s
Width : 1 280 pixels
Height : 720 pixels
Display aspect ratio : 16:9
Frame rate mode : Constant
Frame rate : 30.000 FPS
Color space : YUV
Chroma subsampling : 4:2:0
Bit depth : 8 bits
Scan type : Progressive
Bits/(Pixel*Frame) : 0.069
Stream size : 1.65 GiB (93%)
Codec configuration box : avc

AJPW Summer Action

Audio
ID : 2
Format : AAC LC
Codec ID : mp4a-40-2
Duration : 2 h 3 min
Bit rate mode : Variable
Bit rate : 125 kb/s
Maximum bit rate : 276 kb/s
Channel(s) : 2 channels
Channel layout : L R
Sampling rate : 44.1 kHz
Frame rate : 43.066 FPS (1024 SPF)
Compression mode : Lossy
Stream size : 111 MiB (6%)
mdhd_Duration : 7417684

AJPW Summer Action

Complete name : 2021.07.15.AJPW.Summer.Action.Series.2021.Day.3.mp4
Format : MPEG-4
Format profile : Base Media
Codec ID : isom
File size : 1.76 GiB
Duration : 2 h 3 min
Overall bit rate mode : Variable
Overall bit rate : 2 040 kb/s

Video
ID : 1
Format : AVC
Format/Info : Advanced Video
Duration : 2 h 3 min
Duration_FirstFrame : 33 ms
Bit rate : 1 904 kb/s
Width : 1 280 pixels
Height : 720 pixels
Display aspect ratio : 16:9
Frame rate mode : Constant
Frame rate : 30.000 FPS
Color space : YUV
Chroma subsampling : 4:2:0
Bit depth : 8 bits
Scan type : Progressive
Bits/(Pixel*Frame) : 0.069
Stream size : 1.65 GiB (93%)
Codec configuration box : avc

AJPW Summer Action

Audio
ID : 2
Format : AAC LC
Codec ID : mp4a-40-2
Duration : 2 h 3 min
Bit rate mode : Variable
Bit rate : 125 kb/s
Maximum bit rate : 276 kb/s
Channel(s) : 2 channels
Channel layout : L R
Sampling rate : 44.1 kHz
Frame rate : 43.066 FPS (1024 SPF)
Compression mode : Lossy
Stream size : 111 MiB (6%)
mdhd_Duration : 7417684

AJPW Summer Action

Complete name : 2021.07.15.AJPW.Summer.Action.Series.2021.Day.3.mp4
Format : MPEG-4
Format profile : Base Media
Codec ID : isom
File size : 1.76 GiB
Duration : 2 h 3 min
Overall bit rate mode : Variable
Overall bit rate : 2 040 kb/s

Video
ID : 1
Format : AVC
Format/Info : Advanced Video
Duration : 2 h 3 min
Duration_FirstFrame : 33 ms
Bit rate : 1 904 kb/s
Width : 1 280 pixels
Height : 720 pixels
Display aspect ratio : 16:9
Frame rate mode : Constant
Frame rate : 30.000 FPS
Color space : YUV
Chroma subsampling : 4:2:0
Bit depth : 8 bits
Scan type : Progressive
Bits/(Pixel*Frame) : 0.069
Stream size : 1.65 GiB (93%)
Codec configuration box : avc

AJPW Summer Action

Audio
ID : 2
Format : AAC LC
Codec ID : mp4a-40-2
Duration : 2 h 3 min
Bit rate mode : Variable
Bit rate : 125 kb/s
Maximum bit rate : 276 kb/s
Channel(s) : 2 channels
Channel layout : L R
Sampling rate : 44.1 kHz
Frame rate : 43.066 FPS (1024 SPF)
Compression mode : Lossy
Stream size : 111 MiB (6%)
mdhd_Duration : 7417684

AJPW Summer Action

Complete name : 2021.07.15.AJPW.Summer.Action.Series.2021.Day.3.mp4
Format : MPEG-4
Format profile : Base Media
Codec ID : isom
File size : 1.76 GiB
Duration : 2 h 3 min
Overall bit rate mode : Variable
Overall bit rate : 2 040 kb/s

Video
ID : 1
Format : AVC
Format/Info : Advanced Video
Duration : 2 h 3 min
Duration_FirstFrame : 33 ms
Bit rate : 1 904 kb/s
Width : 1 280 pixels
Height : 720 pixels
Display aspect ratio : 16:9
Frame rate mode : Constant
Frame rate : 30.000 FPS
Color space : YUV
Chroma subsampling : 4:2:0
Bit depth : 8 bits
Scan type : Progressive
Bits/(Pixel*Frame) : 0.069
Stream size : 1.65 GiB (93%)
Codec configuration box : avc

AJPW Summer Action

Audio
ID : 2
Format : AAC LC
Codec ID : mp4a-40-2
Duration : 2 h 3 min
Bit rate mode : Variable
Bit rate : 125 kb/s
Maximum bit rate : 276 kb/s
Channel(s) : 2 channels
Channel layout : L R
Sampling rate : 44.1 kHz
Frame rate : 43.066 FPS (1024 SPF)
Compression mode : Lossy
Stream size : 111 MiB (6%)
mdhd_Duration : 7417684

AJPW Summer Action

Complete name : 2021.07.15.AJPW.Summer.Action.Series.2021.Day.3.mp4
Format : MPEG-4
Format profile : Base Media
Codec ID : isom
File size : 1.76 GiB
Duration : 2 h 3 min
Overall bit rate mode : Variable
Overall bit rate : 2 040 kb/s

Video
ID : 1
Format : AVC
Format/Info : Advanced Video
Duration : 2 h 3 min
Duration_FirstFrame : 33 ms
Bit rate : 1 904 kb/s
Width : 1 280 pixels
Height : 720 pixels
Display aspect ratio : 16:9
Frame rate mode : Constant
Frame rate : 30.000 FPS
Color space : YUV
Chroma subsampling : 4:2:0
Bit depth : 8 bits
Scan type : Progressive
Bits/(Pixel*Frame) : 0.069
Stream size : 1.65 GiB (93%)
Codec configuration box : avc

AJPW Summer Action

Audio
ID : 2
Format : AAC LC
Codec ID : mp4a-40-2
Duration : 2 h 3 min
Bit rate mode : Variable
Bit rate : 125 kb/s
Maximum bit rate : 276 kb/s
Channel(s) : 2 channels
Channel layout : L R
Sampling rate : 44.1 kHz
Frame rate : 43.066 FPS (1024 SPF)
Compression mode : Lossy
Stream size : 111 MiB (6%)
mdhd_Duration : 7417684

AJPW Summer Action

Complete name : 2021.07.15.AJPW.Summer.Action.Series.2021.Day.3.mp4
Format : MPEG-4
Format profile : Base Media
Codec ID : isom
File size : 1.76 GiB
Duration : 2 h 3 min
Overall bit rate mode : Variable
Overall bit rate : 2 040 kb/s

Video
ID : 1
Format : AVC
Format/Info : Advanced Video
Duration : 2 h 3 min
Duration_FirstFrame : 33 ms
Bit rate : 1 904 kb/s
Width : 1 280 pixels
Height : 720 pixels
Display aspect ratio : 16:9
Frame rate mode : Constant
Frame rate : 30.000 FPS
Color space : YUV
Chroma subsampling : 4:2:0
Bit depth : 8 bits
Scan type : Progressive
Bits/(Pixel*Frame) : 0.069
Stream size : 1.65 GiB (93%)
Codec configuration box : avc

AJPW Summer Action

Audio
ID : 2
Format : AAC LC
Codec ID : mp4a-40-2
Duration : 2 h 3 min
Bit rate mode : Variable
Bit rate : 125 kb/s
Maximum bit rate : 276 kb/s
Channel(s) : 2 channels
Channel layout : L R
Sampling rate : 44.1 kHz
Frame rate : 43.066 FPS (1024 SPF)
Compression mode : Lossy
Stream size : 111 MiB (6%)
mdhd_Duration : 7417684

AJPW Summer Action

Complete name : 2021.07.15.AJPW.Summer.Action.Series.2021.Day.3.mp4
Format : MPEG-4
Format profile : Base Media
Codec ID : isom
File size : 1.76 GiB
Duration : 2 h 3 min
Overall bit rate mode : Variable
Overall bit rate : 2 040 kb/s

Video
ID : 1
Format : AVC
Format/Info : Advanced Video
Duration : 2 h 3 min
Duration_FirstFrame : 33 ms
Bit rate : 1 904 kb/s
Width : 1 280 pixels
Height : 720 pixels
Display aspect ratio : 16:9
Frame rate mode : Constant
Frame rate : 30.000 FPS
Color space : YUV
Chroma subsampling : 4:2:0
Bit depth : 8 bits
Scan type : Progressive
Bits/(Pixel*Frame) : 0.069
Stream size : 1.65 GiB (93%)
Codec configuration box : avc

AJPW Summer Action

Audio
ID : 2
Format : AAC LC
Codec ID : mp4a-40-2
Duration : 2 h 3 min
Bit rate mode : Variable
Bit rate : 125 kb/s
Maximum bit rate : 276 kb/s
Channel(s) : 2 channels
Channel layout : L R
Sampling rate : 44.1 kHz
Frame rate : 43.066 FPS (1024 SPF)
Compression mode : Lossy
Stream size : 111 MiB (6%)
mdhd_Duration : 7417684

AJPW Summer Action

Complete name : 2021.07.15.AJPW.Summer.Action.Series.2021.Day.3.mp4
Format : MPEG-4
Format profile : Base Media
Codec ID : isom
File size : 1.76 GiB
Duration : 2 h 3 min
Overall bit rate mode : Variable
Overall bit rate : 2 040 kb/s

Video
ID : 1
Format : AVC
Format/Info : Advanced Video
Duration : 2 h 3 min
Duration_FirstFrame : 33 ms
Bit rate : 1 904 kb/s
Width : 1 280 pixels
Height : 720 pixels
Display aspect ratio : 16:9
Frame rate mode : Constant
Frame rate : 30.000 FPS
Color space : YUV
Chroma subsampling : 4:2:0
Bit depth : 8 bits
Scan type : Progressive
Bits/(Pixel*Frame) : 0.069
Stream size : 1.65 GiB (93%)
Codec configuration box : avc

AJPW Summer Action

Audio
ID : 2
Format : AAC LC
Codec ID : mp4a-40-2
Duration : 2 h 3 min
Bit rate mode : Variable
Bit rate : 125 kb/s
Maximum bit rate : 276 kb/s
Channel(s) : 2 channels
Channel layout : L R
Sampling rate : 44.1 kHz
Frame rate : 43.066 FPS (1024 SPF)
Compression mode : Lossy
Stream size : 111 MiB (6%)
mdhd_Duration : 7417684

AJPW Summer Action

Complete name : 2021.07.15.AJPW.Summer.Action.Series.2021.Day.3.mp4
Format : MPEG-4
Format profile : Base Media
Codec ID : isom
File size : 1.76 GiB
Duration : 2 h 3 min
Overall bit rate mode : Variable
Overall bit rate : 2 040 kb/s

Video
ID : 1
Format : AVC
Format/Info : Advanced Video
Duration : 2 h 3 min
Duration_FirstFrame : 33 ms
Bit rate : 1 904 kb/s
Width : 1 280 pixels
Height : 720 pixels
Display aspect ratio : 16:9
Frame rate mode : Constant
Frame rate : 30.000 FPS
Color space : YUV
Chroma subsampling : 4:2:0
Bit depth : 8 bits
Scan type : Progressive
Bits/(Pixel*Frame) : 0.069
Stream size : 1.65 GiB (93%)
Codec configuration box : avc

AJPW Summer Action

Audio
ID : 2
Format : AAC LC
Codec ID : mp4a-40-2
Duration : 2 h 3 min
Bit rate mode : Variable
Bit rate : 125 kb/s
Maximum bit rate : 276 kb/s
Channel(s) : 2 channels
Channel layout : L R
Sampling rate : 44.1 kHz
Frame rate : 43.066 FPS (1024 SPF)
Compression mode : Lossy
Stream size : 111 MiB (6%)
mdhd_Duration : 7417684

AJPW Summer Action

Complete name : 2021.07.15.AJPW.Summer.Action.Series.2021.Day.3.mp4
Format : MPEG-4
Format profile : Base Media
Codec ID : isom
File size : 1.76 GiB
Duration : 2 h 3 min
Overall bit rate mode : Variable
Overall bit rate : 2 040 kb/s

Video
ID : 1
Format : AVC
Format/Info : Advanced Video
Duration : 2 h 3 min
Duration_FirstFrame : 33 ms
Bit rate : 1 904 kb/s
Width : 1 280 pixels
Height : 720 pixels
Display aspect ratio : 16:9
Frame rate mode : Constant
Frame rate : 30.000 FPS
Color space : YUV
Chroma subsampling : 4:2:0
Bit depth : 8 bits
Scan type : Progressive
Bits/(Pixel*Frame) : 0.069
Stream size : 1.65 GiB (93%)
Codec configuration box : avc

AJPW Summer Action

Audio
ID : 2
Format : AAC LC
Codec ID : mp4a-40-2
Duration : 2 h 3 min
Bit rate mode : Variable
Bit rate : 125 kb/s
Maximum bit rate : 276 kb/s
Channel(s) : 2 channels
Channel layout : L R
Sampling rate : 44.1 kHz
Frame rate : 43.066 FPS (1024 SPF)
Compression mode : Lossy
Stream size : 111 MiB (6%)
mdhd_Duration : 7417684

AJPW Summer Action

Complete name : 2021.07.15.AJPW.Summer.Action.Series.2021.Day.3.mp4
Format : MPEG-4
Format profile : Base Media
Codec ID : isom
File size : 1.76 GiB
Duration : 2 h 3 min
Overall bit rate mode : Variable
Overall bit rate : 2 040 kb/s

Video
ID : 1
Format : AVC
Format/Info : Advanced Video
Duration : 2 h 3 min
Duration_FirstFrame : 33 ms
Bit rate : 1 904 kb/s
Width : 1 280 pixels
Height : 720 pixels
Display aspect ratio : 16:9
Frame rate mode : Constant
Frame rate : 30.000 FPS
Color space : YUV
Chroma subsampling : 4:2:0
Bit depth : 8 bits
Scan type : Progressive
Bits/(Pixel*Frame) : 0.069
Stream size : 1.65 GiB (93%)
Codec configuration box : avc

AJPW Summer Action

Audio
ID : 2
Format : AAC LC
Codec ID : mp4a-40-2
Duration : 2 h 3 min
Bit rate mode : Variable
Bit rate : 125 kb/s
Maximum bit rate : 276 kb/s
Channel(s) : 2 channels
Channel layout : L R
Sampling rate : 44.1 kHz
Frame rate : 43.066 FPS (1024 SPF)
Compression mode : Lossy
Stream size : 111 MiB (6%)
mdhd_Duration : 7417684

AJPW Summer Action

 

[collapse]

 

 

https://dx-tv.com/

Leave a Reply

Your email address will not be published. Required fields are marked *

This site uses Akismet to reduce spam. Learn how your comment data is processed.