AJPW Summer Action Series 2021 07 11 Day 1 Online Free Replay DX-TV

Contents show

AJPW Summer Action Series

 AJPW Summer Action Series 2021

 

 

 

Download Links with premium High Speed


Dopapk

 

 

Show Links

 

http://shrt10.com/PsDA5

 

[collapse]

 

 

Nitroflare

 

 

Show Links

 

http://shrt10.com/NtWs4W

 

[collapse]

 

 

Rapidgator

 

 

Show Links

 

http://shrt10.com/Psyj4

 

[collapse]

 

 

Uploaded

 

 

Show Links

 

http://shrt10.com/82XBeb6g

 

[collapse]

 

 

Watch online

 

Server 1

 

 

 

 

AJPW Summer Action Series

 

 

 

 

Server-2

 

 

 

 

watch now

 

 

 

|Server-3

 

 

 

 

watch now

 

 

Uploaded By Site DX-TV.com

 

 

Show Info This Show

 

AJPW Summer Action Series

Complete name : 2021.07.11.AJPW.Summer.Action.Series.2021.Day.1.mp4
Format : MPEG-4
Format profile : Base Media
Codec ID : isom
File size : 2.37 GiB
Duration : 2 h 45 min
Overall bit rate : 2 048 kb/s

Video
ID : 1
Format : AVC
Format/Info : Advanced Video
Duration : 2 h 45 min
Bit rate : 1 943 kb/s
Width : 1 920 pixels
Height : 1 080 pixels
Display aspect ratio : 16:9
Frame rate mode : Variable
Frame rate : 29.970 (29970/1000) FPS
Minimum frame rate : 19.608 FPS
Maximum frame rate : 32.258 FPS
Color space : YUV
Chroma subsampling : 4:2:0
Bit depth : 8 bits
Scan type : Progressive
Bits/(Pixel*Frame) : 0.031
Stream size : 2.25 GiB (95%)
Color range : Full
Color primaries : BT.709
Transfer characteristics : BT.709
Matrix coefficients : BT.709
Codec configuration box : avc

AJPW Summer Action Series

Audio
ID : 2
Format : AAC LC
Format/Info : Advanced Audio
Codec ID : mp4a-40-2
Duration : 2 h 45 min
Bit rate mode : Constant
Bit rate : 96.0 kb/s
Channel(s) : 2 channels
Channel layout : L R
Sampling rate : 48.0 kHz
Frame rate : 46.875 FPS (1024 SPF)
Compression mode : Lossy
Stream size : 114 MiB (5%)
Default : Yes
Alternate group : 1

AJPW Summer Action Series

Complete name : 2021.07.11.AJPW.Summer.Action.Series.2021.Day.1.mp4
Format : MPEG-4
Format profile : Base Media
Codec ID : isom
File size : 2.37 GiB
Duration : 2 h 45 min
Overall bit rate : 2 048 kb/s

Video
ID : 1
Format : AVC
Format/Info : Advanced Video
Duration : 2 h 45 min
Bit rate : 1 943 kb/s
Width : 1 920 pixels
Height : 1 080 pixels
Display aspect ratio : 16:9
Frame rate mode : Variable
Frame rate : 29.970 (29970/1000) FPS
Minimum frame rate : 19.608 FPS
Maximum frame rate : 32.258 FPS
Color space : YUV
Chroma subsampling : 4:2:0
Bit depth : 8 bits
Scan type : Progressive
Bits/(Pixel*Frame) : 0.031
Stream size : 2.25 GiB (95%)
Color range : Full
Color primaries : BT.709
Transfer characteristics : BT.709
Matrix coefficients : BT.709
Codec configuration box : avc

AJPW Summer Action Series

Audio
ID : 2
Format : AAC LC
Format/Info : Advanced Audio
Codec ID : mp4a-40-2
Duration : 2 h 45 min
Bit rate mode : Constant
Bit rate : 96.0 kb/s
Channel(s) : 2 channels
Channel layout : L R
Sampling rate : 48.0 kHz
Frame rate : 46.875 FPS (1024 SPF)
Compression mode : Lossy
Stream size : 114 MiB (5%)
Default : Yes
Alternate group : 1

AJPW Summer Action Series

Complete name : 2021.07.11.AJPW.Summer.Action.Series.2021.Day.1.mp4
Format : MPEG-4
Format profile : Base Media
Codec ID : isom
File size : 2.37 GiB
Duration : 2 h 45 min
Overall bit rate : 2 048 kb/s

Video
ID : 1
Format : AVC
Format/Info : Advanced Video
Duration : 2 h 45 min
Bit rate : 1 943 kb/s
Width : 1 920 pixels
Height : 1 080 pixels
Display aspect ratio : 16:9
Frame rate mode : Variable
Frame rate : 29.970 (29970/1000) FPS
Minimum frame rate : 19.608 FPS
Maximum frame rate : 32.258 FPS
Color space : YUV
Chroma subsampling : 4:2:0
Bit depth : 8 bits
Scan type : Progressive
Bits/(Pixel*Frame) : 0.031
Stream size : 2.25 GiB (95%)
Color range : Full
Color primaries : BT.709
Transfer characteristics : BT.709
Matrix coefficients : BT.709
Codec configuration box : avc

AJPW Summer Action Series

Audio
ID : 2
Format : AAC LC
Format/Info : Advanced Audio
Codec ID : mp4a-40-2
Duration : 2 h 45 min
Bit rate mode : Constant
Bit rate : 96.0 kb/s
Channel(s) : 2 channels
Channel layout : L R
Sampling rate : 48.0 kHz
Frame rate : 46.875 FPS (1024 SPF)
Compression mode : Lossy
Stream size : 114 MiB (5%)
Default : Yes
Alternate group : 1

AJPW Summer Action Series

Complete name : 2021.07.11.AJPW.Summer.Action.Series.2021.Day.1.mp4
Format : MPEG-4
Format profile : Base Media
Codec ID : isom
File size : 2.37 GiB
Duration : 2 h 45 min
Overall bit rate : 2 048 kb/s

Video
ID : 1
Format : AVC
Format/Info : Advanced Video
Duration : 2 h 45 min
Bit rate : 1 943 kb/s
Width : 1 920 pixels
Height : 1 080 pixels
Display aspect ratio : 16:9
Frame rate mode : Variable
Frame rate : 29.970 (29970/1000) FPS
Minimum frame rate : 19.608 FPS
Maximum frame rate : 32.258 FPS
Color space : YUV
Chroma subsampling : 4:2:0
Bit depth : 8 bits
Scan type : Progressive
Bits/(Pixel*Frame) : 0.031
Stream size : 2.25 GiB (95%)
Color range : Full
Color primaries : BT.709
Transfer characteristics : BT.709
Matrix coefficients : BT.709
Codec configuration box : avc

AJPW Summer Action Series

Audio
ID : 2
Format : AAC LC
Format/Info : Advanced Audio
Codec ID : mp4a-40-2
Duration : 2 h 45 min
Bit rate mode : Constant
Bit rate : 96.0 kb/s
Channel(s) : 2 channels
Channel layout : L R
Sampling rate : 48.0 kHz
Frame rate : 46.875 FPS (1024 SPF)
Compression mode : Lossy
Stream size : 114 MiB (5%)
Default : Yes
Alternate group : 1

AJPW Summer Action Series

Complete name : 2021.07.11.AJPW.Summer.Action.Series.2021.Day.1.mp4
Format : MPEG-4
Format profile : Base Media
Codec ID : isom
File size : 2.37 GiB
Duration : 2 h 45 min
Overall bit rate : 2 048 kb/s

Video
ID : 1
Format : AVC
Format/Info : Advanced Video
Duration : 2 h 45 min
Bit rate : 1 943 kb/s
Width : 1 920 pixels
Height : 1 080 pixels
Display aspect ratio : 16:9
Frame rate mode : Variable
Frame rate : 29.970 (29970/1000) FPS
Minimum frame rate : 19.608 FPS
Maximum frame rate : 32.258 FPS
Color space : YUV
Chroma subsampling : 4:2:0
Bit depth : 8 bits
Scan type : Progressive
Bits/(Pixel*Frame) : 0.031
Stream size : 2.25 GiB (95%)
Color range : Full
Color primaries : BT.709
Transfer characteristics : BT.709
Matrix coefficients : BT.709
Codec configuration box : avc

AJPW Summer Action Series

Audio
ID : 2
Format : AAC LC
Format/Info : Advanced Audio
Codec ID : mp4a-40-2
Duration : 2 h 45 min
Bit rate mode : Constant
Bit rate : 96.0 kb/s
Channel(s) : 2 channels
Channel layout : L R
Sampling rate : 48.0 kHz
Frame rate : 46.875 FPS (1024 SPF)
Compression mode : Lossy
Stream size : 114 MiB (5%)
Default : Yes
Alternate group : 1

AJPW Summer Action Series

Complete name : 2021.07.11.AJPW.Summer.Action.Series.2021.Day.1.mp4
Format : MPEG-4
Format profile : Base Media
Codec ID : isom
File size : 2.37 GiB
Duration : 2 h 45 min
Overall bit rate : 2 048 kb/s

Video
ID : 1
Format : AVC
Format/Info : Advanced Video
Duration : 2 h 45 min
Bit rate : 1 943 kb/s
Width : 1 920 pixels
Height : 1 080 pixels
Display aspect ratio : 16:9
Frame rate mode : Variable
Frame rate : 29.970 (29970/1000) FPS
Minimum frame rate : 19.608 FPS
Maximum frame rate : 32.258 FPS
Color space : YUV
Chroma subsampling : 4:2:0
Bit depth : 8 bits
Scan type : Progressive
Bits/(Pixel*Frame) : 0.031
Stream size : 2.25 GiB (95%)
Color range : Full
Color primaries : BT.709
Transfer characteristics : BT.709
Matrix coefficients : BT.709
Codec configuration box : avc

AJPW Summer Action Series

Audio
ID : 2
Format : AAC LC
Format/Info : Advanced Audio
Codec ID : mp4a-40-2
Duration : 2 h 45 min
Bit rate mode : Constant
Bit rate : 96.0 kb/s
Channel(s) : 2 channels
Channel layout : L R
Sampling rate : 48.0 kHz
Frame rate : 46.875 FPS (1024 SPF)
Compression mode : Lossy
Stream size : 114 MiB (5%)
Default : Yes
Alternate group : 1

AJPW Summer Action Series

Complete name : 2021.07.11.AJPW.Summer.Action.Series.2021.Day.1.mp4
Format : MPEG-4
Format profile : Base Media
Codec ID : isom
File size : 2.37 GiB
Duration : 2 h 45 min
Overall bit rate : 2 048 kb/s

Video
ID : 1
Format : AVC
Format/Info : Advanced Video
Duration : 2 h 45 min
Bit rate : 1 943 kb/s
Width : 1 920 pixels
Height : 1 080 pixels
Display aspect ratio : 16:9
Frame rate mode : Variable
Frame rate : 29.970 (29970/1000) FPS
Minimum frame rate : 19.608 FPS
Maximum frame rate : 32.258 FPS
Color space : YUV
Chroma subsampling : 4:2:0
Bit depth : 8 bits
Scan type : Progressive
Bits/(Pixel*Frame) : 0.031
Stream size : 2.25 GiB (95%)
Color range : Full
Color primaries : BT.709
Transfer characteristics : BT.709
Matrix coefficients : BT.709
Codec configuration box : avc

AJPW Summer Action Series

Audio
ID : 2
Format : AAC LC
Format/Info : Advanced Audio
Codec ID : mp4a-40-2
Duration : 2 h 45 min
Bit rate mode : Constant
Bit rate : 96.0 kb/s
Channel(s) : 2 channels
Channel layout : L R
Sampling rate : 48.0 kHz
Frame rate : 46.875 FPS (1024 SPF)
Compression mode : Lossy
Stream size : 114 MiB (5%)
Default : Yes
Alternate group : 1

AJPW Summer Action Series

Complete name : 2021.07.11.AJPW.Summer.Action.Series.2021.Day.1.mp4
Format : MPEG-4
Format profile : Base Media
Codec ID : isom
File size : 2.37 GiB
Duration : 2 h 45 min
Overall bit rate : 2 048 kb/s

Video
ID : 1
Format : AVC
Format/Info : Advanced Video
Duration : 2 h 45 min
Bit rate : 1 943 kb/s
Width : 1 920 pixels
Height : 1 080 pixels
Display aspect ratio : 16:9
Frame rate mode : Variable
Frame rate : 29.970 (29970/1000) FPS
Minimum frame rate : 19.608 FPS
Maximum frame rate : 32.258 FPS
Color space : YUV
Chroma subsampling : 4:2:0
Bit depth : 8 bits
Scan type : Progressive
Bits/(Pixel*Frame) : 0.031
Stream size : 2.25 GiB (95%)
Color range : Full
Color primaries : BT.709
Transfer characteristics : BT.709
Matrix coefficients : BT.709
Codec configuration box : avc

AJPW Summer Action Series

Audio
ID : 2
Format : AAC LC
Format/Info : Advanced Audio
Codec ID : mp4a-40-2
Duration : 2 h 45 min
Bit rate mode : Constant
Bit rate : 96.0 kb/s
Channel(s) : 2 channels
Channel layout : L R
Sampling rate : 48.0 kHz
Frame rate : 46.875 FPS (1024 SPF)
Compression mode : Lossy
Stream size : 114 MiB (5%)
Default : Yes
Alternate group : 1

AJPW Summer Action Series

Complete name : 2021.07.11.AJPW.Summer.Action.Series.2021.Day.1.mp4
Format : MPEG-4
Format profile : Base Media
Codec ID : isom
File size : 2.37 GiB
Duration : 2 h 45 min
Overall bit rate : 2 048 kb/s

Video
ID : 1
Format : AVC
Format/Info : Advanced Video
Duration : 2 h 45 min
Bit rate : 1 943 kb/s
Width : 1 920 pixels
Height : 1 080 pixels
Display aspect ratio : 16:9
Frame rate mode : Variable
Frame rate : 29.970 (29970/1000) FPS
Minimum frame rate : 19.608 FPS
Maximum frame rate : 32.258 FPS
Color space : YUV
Chroma subsampling : 4:2:0
Bit depth : 8 bits
Scan type : Progressive
Bits/(Pixel*Frame) : 0.031
Stream size : 2.25 GiB (95%)
Color range : Full
Color primaries : BT.709
Transfer characteristics : BT.709
Matrix coefficients : BT.709
Codec configuration box : avc

AJPW Summer Action Series

Audio
ID : 2
Format : AAC LC
Format/Info : Advanced Audio
Codec ID : mp4a-40-2
Duration : 2 h 45 min
Bit rate mode : Constant
Bit rate : 96.0 kb/s
Channel(s) : 2 channels
Channel layout : L R
Sampling rate : 48.0 kHz
Frame rate : 46.875 FPS (1024 SPF)
Compression mode : Lossy
Stream size : 114 MiB (5%)
Default : Yes
Alternate group : 1

AJPW Summer Action Series

Complete name : 2021.07.11.AJPW.Summer.Action.Series.2021.Day.1.mp4
Format : MPEG-4
Format profile : Base Media
Codec ID : isom
File size : 2.37 GiB
Duration : 2 h 45 min
Overall bit rate : 2 048 kb/s

Video
ID : 1
Format : AVC
Format/Info : Advanced Video
Duration : 2 h 45 min
Bit rate : 1 943 kb/s
Width : 1 920 pixels
Height : 1 080 pixels
Display aspect ratio : 16:9
Frame rate mode : Variable
Frame rate : 29.970 (29970/1000) FPS
Minimum frame rate : 19.608 FPS
Maximum frame rate : 32.258 FPS
Color space : YUV
Chroma subsampling : 4:2:0
Bit depth : 8 bits
Scan type : Progressive
Bits/(Pixel*Frame) : 0.031
Stream size : 2.25 GiB (95%)
Color range : Full
Color primaries : BT.709
Transfer characteristics : BT.709
Matrix coefficients : BT.709
Codec configuration box : avc

AJPW Summer Action Series

Audio
ID : 2
Format : AAC LC
Format/Info : Advanced Audio
Codec ID : mp4a-40-2
Duration : 2 h 45 min
Bit rate mode : Constant
Bit rate : 96.0 kb/s
Channel(s) : 2 channels
Channel layout : L R
Sampling rate : 48.0 kHz
Frame rate : 46.875 FPS (1024 SPF)
Compression mode : Lossy
Stream size : 114 MiB (5%)
Default : Yes
Alternate group : 1

AJPW Summer Action Series

Complete name : 2021.07.11.AJPW.Summer.Action.Series.2021.Day.1.mp4
Format : MPEG-4
Format profile : Base Media
Codec ID : isom
File size : 2.37 GiB
Duration : 2 h 45 min
Overall bit rate : 2 048 kb/s

Video
ID : 1
Format : AVC
Format/Info : Advanced Video
Duration : 2 h 45 min
Bit rate : 1 943 kb/s
Width : 1 920 pixels
Height : 1 080 pixels
Display aspect ratio : 16:9
Frame rate mode : Variable
Frame rate : 29.970 (29970/1000) FPS
Minimum frame rate : 19.608 FPS
Maximum frame rate : 32.258 FPS
Color space : YUV
Chroma subsampling : 4:2:0
Bit depth : 8 bits
Scan type : Progressive
Bits/(Pixel*Frame) : 0.031
Stream size : 2.25 GiB (95%)
Color range : Full
Color primaries : BT.709
Transfer characteristics : BT.709
Matrix coefficients : BT.709
Codec configuration box : avc

AJPW Summer Action Series

Audio
ID : 2
Format : AAC LC
Format/Info : Advanced Audio
Codec ID : mp4a-40-2
Duration : 2 h 45 min
Bit rate mode : Constant
Bit rate : 96.0 kb/s
Channel(s) : 2 channels
Channel layout : L R
Sampling rate : 48.0 kHz
Frame rate : 46.875 FPS (1024 SPF)
Compression mode : Lossy
Stream size : 114 MiB (5%)
Default : Yes
Alternate group : 1

AJPW Summer Action Series

Complete name : 2021.07.11.AJPW.Summer.Action.Series.2021.Day.1.mp4
Format : MPEG-4
Format profile : Base Media
Codec ID : isom
File size : 2.37 GiB
Duration : 2 h 45 min
Overall bit rate : 2 048 kb/s

Video
ID : 1
Format : AVC
Format/Info : Advanced Video
Duration : 2 h 45 min
Bit rate : 1 943 kb/s
Width : 1 920 pixels
Height : 1 080 pixels
Display aspect ratio : 16:9
Frame rate mode : Variable
Frame rate : 29.970 (29970/1000) FPS
Minimum frame rate : 19.608 FPS
Maximum frame rate : 32.258 FPS
Color space : YUV
Chroma subsampling : 4:2:0
Bit depth : 8 bits
Scan type : Progressive
Bits/(Pixel*Frame) : 0.031
Stream size : 2.25 GiB (95%)
Color range : Full
Color primaries : BT.709
Transfer characteristics : BT.709
Matrix coefficients : BT.709
Codec configuration box : avc

AJPW Summer Action Series

Audio
ID : 2
Format : AAC LC
Format/Info : Advanced Audio
Codec ID : mp4a-40-2
Duration : 2 h 45 min
Bit rate mode : Constant
Bit rate : 96.0 kb/s
Channel(s) : 2 channels
Channel layout : L R
Sampling rate : 48.0 kHz
Frame rate : 46.875 FPS (1024 SPF)
Compression mode : Lossy
Stream size : 114 MiB (5%)
Default : Yes
Alternate group : 1

AJPW Summer Action Series

Complete name : 2021.07.11.AJPW.Summer.Action.Series.2021.Day.1.mp4
Format : MPEG-4
Format profile : Base Media
Codec ID : isom
File size : 2.37 GiB
Duration : 2 h 45 min
Overall bit rate : 2 048 kb/s

Video
ID : 1
Format : AVC
Format/Info : Advanced Video
Duration : 2 h 45 min
Bit rate : 1 943 kb/s
Width : 1 920 pixels
Height : 1 080 pixels
Display aspect ratio : 16:9
Frame rate mode : Variable
Frame rate : 29.970 (29970/1000) FPS
Minimum frame rate : 19.608 FPS
Maximum frame rate : 32.258 FPS
Color space : YUV
Chroma subsampling : 4:2:0
Bit depth : 8 bits
Scan type : Progressive
Bits/(Pixel*Frame) : 0.031
Stream size : 2.25 GiB (95%)
Color range : Full
Color primaries : BT.709
Transfer characteristics : BT.709
Matrix coefficients : BT.709
Codec configuration box : avc

AJPW Summer Action Series

Audio
ID : 2
Format : AAC LC
Format/Info : Advanced Audio
Codec ID : mp4a-40-2
Duration : 2 h 45 min
Bit rate mode : Constant
Bit rate : 96.0 kb/s
Channel(s) : 2 channels
Channel layout : L R
Sampling rate : 48.0 kHz
Frame rate : 46.875 FPS (1024 SPF)
Compression mode : Lossy
Stream size : 114 MiB (5%)
Default : Yes
Alternate group : 1

AJPW Summer Action Series

Complete name : 2021.07.11.AJPW.Summer.Action.Series.2021.Day.1.mp4
Format : MPEG-4
Format profile : Base Media
Codec ID : isom
File size : 2.37 GiB
Duration : 2 h 45 min
Overall bit rate : 2 048 kb/s

Video
ID : 1
Format : AVC
Format/Info : Advanced Video
Duration : 2 h 45 min
Bit rate : 1 943 kb/s
Width : 1 920 pixels
Height : 1 080 pixels
Display aspect ratio : 16:9
Frame rate mode : Variable
Frame rate : 29.970 (29970/1000) FPS
Minimum frame rate : 19.608 FPS
Maximum frame rate : 32.258 FPS
Color space : YUV
Chroma subsampling : 4:2:0
Bit depth : 8 bits
Scan type : Progressive
Bits/(Pixel*Frame) : 0.031
Stream size : 2.25 GiB (95%)
Color range : Full
Color primaries : BT.709
Transfer characteristics : BT.709
Matrix coefficients : BT.709
Codec configuration box : avc

AJPW Summer Action Series

Audio
ID : 2
Format : AAC LC
Format/Info : Advanced Audio
Codec ID : mp4a-40-2
Duration : 2 h 45 min
Bit rate mode : Constant
Bit rate : 96.0 kb/s
Channel(s) : 2 channels
Channel layout : L R
Sampling rate : 48.0 kHz
Frame rate : 46.875 FPS (1024 SPF)
Compression mode : Lossy
Stream size : 114 MiB (5%)
Default : Yes
Alternate group : 1

AJPW Summer Action Series

Complete name : 2021.07.11.AJPW.Summer.Action.Series.2021.Day.1.mp4
Format : MPEG-4
Format profile : Base Media
Codec ID : isom
File size : 2.37 GiB
Duration : 2 h 45 min
Overall bit rate : 2 048 kb/s

Video
ID : 1
Format : AVC
Format/Info : Advanced Video
Duration : 2 h 45 min
Bit rate : 1 943 kb/s
Width : 1 920 pixels
Height : 1 080 pixels
Display aspect ratio : 16:9
Frame rate mode : Variable
Frame rate : 29.970 (29970/1000) FPS
Minimum frame rate : 19.608 FPS
Maximum frame rate : 32.258 FPS
Color space : YUV
Chroma subsampling : 4:2:0
Bit depth : 8 bits
Scan type : Progressive
Bits/(Pixel*Frame) : 0.031
Stream size : 2.25 GiB (95%)
Color range : Full
Color primaries : BT.709
Transfer characteristics : BT.709
Matrix coefficients : BT.709
Codec configuration box : avc

AJPW Summer Action Series

Audio
ID : 2
Format : AAC LC
Format/Info : Advanced Audio
Codec ID : mp4a-40-2
Duration : 2 h 45 min
Bit rate mode : Constant
Bit rate : 96.0 kb/s
Channel(s) : 2 channels
Channel layout : L R
Sampling rate : 48.0 kHz
Frame rate : 46.875 FPS (1024 SPF)
Compression mode : Lossy
Stream size : 114 MiB (5%)
Default : Yes
Alternate group : 1

AJPW Summer Action Series

Complete name : 2021.07.11.AJPW.Summer.Action.Series.2021.Day.1.mp4
Format : MPEG-4
Format profile : Base Media
Codec ID : isom
File size : 2.37 GiB
Duration : 2 h 45 min
Overall bit rate : 2 048 kb/s

Video
ID : 1
Format : AVC
Format/Info : Advanced Video
Duration : 2 h 45 min
Bit rate : 1 943 kb/s
Width : 1 920 pixels
Height : 1 080 pixels
Display aspect ratio : 16:9
Frame rate mode : Variable
Frame rate : 29.970 (29970/1000) FPS
Minimum frame rate : 19.608 FPS
Maximum frame rate : 32.258 FPS
Color space : YUV
Chroma subsampling : 4:2:0
Bit depth : 8 bits
Scan type : Progressive
Bits/(Pixel*Frame) : 0.031
Stream size : 2.25 GiB (95%)
Color range : Full
Color primaries : BT.709
Transfer characteristics : BT.709
Matrix coefficients : BT.709
Codec configuration box : avc

AJPW Summer Action Series

Audio
ID : 2
Format : AAC LC
Format/Info : Advanced Audio
Codec ID : mp4a-40-2
Duration : 2 h 45 min
Bit rate mode : Constant
Bit rate : 96.0 kb/s
Channel(s) : 2 channels
Channel layout : L R
Sampling rate : 48.0 kHz
Frame rate : 46.875 FPS (1024 SPF)
Compression mode : Lossy
Stream size : 114 MiB (5%)
Default : Yes
Alternate group : 1

AJPW Summer Action Series

Complete name : 2021.07.11.AJPW.Summer.Action.Series.2021.Day.1.mp4
Format : MPEG-4
Format profile : Base Media
Codec ID : isom
File size : 2.37 GiB
Duration : 2 h 45 min
Overall bit rate : 2 048 kb/s

Video
ID : 1
Format : AVC
Format/Info : Advanced Video
Duration : 2 h 45 min
Bit rate : 1 943 kb/s
Width : 1 920 pixels
Height : 1 080 pixels
Display aspect ratio : 16:9
Frame rate mode : Variable
Frame rate : 29.970 (29970/1000) FPS
Minimum frame rate : 19.608 FPS
Maximum frame rate : 32.258 FPS
Color space : YUV
Chroma subsampling : 4:2:0
Bit depth : 8 bits
Scan type : Progressive
Bits/(Pixel*Frame) : 0.031
Stream size : 2.25 GiB (95%)
Color range : Full
Color primaries : BT.709
Transfer characteristics : BT.709
Matrix coefficients : BT.709
Codec configuration box : avc

AJPW Summer Action Series

Audio
ID : 2
Format : AAC LC
Format/Info : Advanced Audio
Codec ID : mp4a-40-2
Duration : 2 h 45 min
Bit rate mode : Constant
Bit rate : 96.0 kb/s
Channel(s) : 2 channels
Channel layout : L R
Sampling rate : 48.0 kHz
Frame rate : 46.875 FPS (1024 SPF)
Compression mode : Lossy
Stream size : 114 MiB (5%)
Default : Yes
Alternate group : 1

AJPW Summer Action Series

Complete name : 2021.07.11.AJPW.Summer.Action.Series.2021.Day.1.mp4
Format : MPEG-4
Format profile : Base Media
Codec ID : isom
File size : 2.37 GiB
Duration : 2 h 45 min
Overall bit rate : 2 048 kb/s

Video
ID : 1
Format : AVC
Format/Info : Advanced Video
Duration : 2 h 45 min
Bit rate : 1 943 kb/s
Width : 1 920 pixels
Height : 1 080 pixels
Display aspect ratio : 16:9
Frame rate mode : Variable
Frame rate : 29.970 (29970/1000) FPS
Minimum frame rate : 19.608 FPS
Maximum frame rate : 32.258 FPS
Color space : YUV
Chroma subsampling : 4:2:0
Bit depth : 8 bits
Scan type : Progressive
Bits/(Pixel*Frame) : 0.031
Stream size : 2.25 GiB (95%)
Color range : Full
Color primaries : BT.709
Transfer characteristics : BT.709
Matrix coefficients : BT.709
Codec configuration box : avc

AJPW Summer Action Series

Audio
ID : 2
Format : AAC LC
Format/Info : Advanced Audio
Codec ID : mp4a-40-2
Duration : 2 h 45 min
Bit rate mode : Constant
Bit rate : 96.0 kb/s
Channel(s) : 2 channels
Channel layout : L R
Sampling rate : 48.0 kHz
Frame rate : 46.875 FPS (1024 SPF)
Compression mode : Lossy
Stream size : 114 MiB (5%)
Default : Yes
Alternate group : 1

AJPW Summer Action Series

Complete name : 2021.07.11.AJPW.Summer.Action.Series.2021.Day.1.mp4
Format : MPEG-4
Format profile : Base Media
Codec ID : isom
File size : 2.37 GiB
Duration : 2 h 45 min
Overall bit rate : 2 048 kb/s

Video
ID : 1
Format : AVC
Format/Info : Advanced Video
Duration : 2 h 45 min
Bit rate : 1 943 kb/s
Width : 1 920 pixels
Height : 1 080 pixels
Display aspect ratio : 16:9
Frame rate mode : Variable
Frame rate : 29.970 (29970/1000) FPS
Minimum frame rate : 19.608 FPS
Maximum frame rate : 32.258 FPS
Color space : YUV
Chroma subsampling : 4:2:0
Bit depth : 8 bits
Scan type : Progressive
Bits/(Pixel*Frame) : 0.031
Stream size : 2.25 GiB (95%)
Color range : Full
Color primaries : BT.709
Transfer characteristics : BT.709
Matrix coefficients : BT.709
Codec configuration box : avc

AJPW Summer Action Series

Audio
ID : 2
Format : AAC LC
Format/Info : Advanced Audio
Codec ID : mp4a-40-2
Duration : 2 h 45 min
Bit rate mode : Constant
Bit rate : 96.0 kb/s
Channel(s) : 2 channels
Channel layout : L R
Sampling rate : 48.0 kHz
Frame rate : 46.875 FPS (1024 SPF)
Compression mode : Lossy
Stream size : 114 MiB (5%)
Default : Yes
Alternate group : 1

AJPW Summer Action Series

Complete name : 2021.07.11.AJPW.Summer.Action.Series.2021.Day.1.mp4
Format : MPEG-4
Format profile : Base Media
Codec ID : isom
File size : 2.37 GiB
Duration : 2 h 45 min
Overall bit rate : 2 048 kb/s

Video
ID : 1
Format : AVC
Format/Info : Advanced Video
Duration : 2 h 45 min
Bit rate : 1 943 kb/s
Width : 1 920 pixels
Height : 1 080 pixels
Display aspect ratio : 16:9
Frame rate mode : Variable
Frame rate : 29.970 (29970/1000) FPS
Minimum frame rate : 19.608 FPS
Maximum frame rate : 32.258 FPS
Color space : YUV
Chroma subsampling : 4:2:0
Bit depth : 8 bits
Scan type : Progressive
Bits/(Pixel*Frame) : 0.031
Stream size : 2.25 GiB (95%)
Color range : Full
Color primaries : BT.709
Transfer characteristics : BT.709
Matrix coefficients : BT.709
Codec configuration box : avc

AJPW Summer Action Series

Audio
ID : 2
Format : AAC LC
Format/Info : Advanced Audio
Codec ID : mp4a-40-2
Duration : 2 h 45 min
Bit rate mode : Constant
Bit rate : 96.0 kb/s
Channel(s) : 2 channels
Channel layout : L R
Sampling rate : 48.0 kHz
Frame rate : 46.875 FPS (1024 SPF)
Compression mode : Lossy
Stream size : 114 MiB (5%)
Default : Yes
Alternate group : 1

AJPW Summer Action Series

 

[collapse]

 

 

https://dx-tv.com/

Leave a Reply

Your email address will not be published. Required fields are marked *

This site uses Akismet to reduce spam. Learn how your comment data is processed.

Previous Post
ICW No Holds Barred vol 16

ICW No Holds Barred Vol 16 Online Free Replay

Next Post
ROH Best in the World PPV 2021

ROH Best in the World PPV 2021 Free Live Stream