AJPW Royal Road Tournament Day 2 2021 Free

AJPW Royal Road Tournament Day 2 2021 08 18 Online Free Replay DX-TV

Contents show

AJPW Royal Road Tournament

 AJPW Royal Road Tournament

 

 

 

Download Links with premium High Speed
 

 


 

Dopapk

 

 

Show Links

 

 

http://shrt10.com/0AxPAoAc

 

[collapse]

 

 

 

 

Nitroflare

 

 

Show Links

 

 

http://shrt10.com/LJMcymY

 

 

[collapse]

 

 

Rapidgator

 

 

Show Links

 

 

http://shrt10.com/sATsUOI3

 

 

[collapse]

 

 

 

Uploaded
 

 

Show Links

 

 

http://shrt10.com/B5Nhd3Cjv

 

 

[collapse]

 

 

 

 

 

Watch online

 

Server 1

 

 

 

 

AJPW Royal Road Tournament

 

 

 

 

Server-2

 

 

 

 

watch now

 

 

 

|Server-3

 

 

 

 

watch now

 

 

Uploaded By Site DX-TV.com

 

 

Show Info This Show

 

AJPW Royal Road Tournament

Complete name : 2021.08.18.AJPW.Royal.Road.Tournament.Day.2.mp4
Format : MPEG-4
Format profile : Base Media
Codec ID : isom
File size : 2.11 GiB
Duration : 2 h 27 min
Overall bit rate mode : Variable
Overall bit rate : 2 040 kb/s

Video
ID : 1
Format : AVC
Format/Info : Advanced Video
Duration : 2 h 27 min
Duration_FirstFrame : 33 ms
Bit rate : 1 904 kb/s
Width : 1 280 pixels
Height : 720 pixels
Display aspect ratio : 16:9
Frame rate mode : Constant
Frame rate : 30.000 FPS
Color space : YUV
Chroma subsampling : 4:2:0
Bit depth : 8 bits
Scan type : Progressive
Bits/(Pixel*Frame) : 0.069
Codec configuration box : avcC

AJPW Royal Road Tournament

Audio
ID : 2
Format : AAC LC
Format/Info : Advanced Audio
Codec ID : mp4a-40-2
Duration : 2 h 27 min
Bit rate mode : Variable
Bit rate : 125 kb/s
Maximum bit rate : 279 kb/s
Channel(s) : 2 channels
Channel layout : L R
Sampling rate : 44.1 kHz
Frame rate : 43.066 FPS (1024 SPF)
Compression mode : Lossy
Stream size : 132 MiB (6%)
mdhd_Duration : 8865982

AJPW Royal Road Tournament

Complete name : 2021.08.18.AJPW.Royal.Road.Tournament.Day.2.mp4
Format : MPEG-4
Format profile : Base Media
Codec ID : isom
File size : 2.11 GiB
Duration : 2 h 27 min
Overall bit rate mode : Variable
Overall bit rate : 2 040 kb/s

Video
ID : 1
Format : AVC
Format/Info : Advanced Video
Duration : 2 h 27 min
Duration_FirstFrame : 33 ms
Bit rate : 1 904 kb/s
Width : 1 280 pixels
Height : 720 pixels
Display aspect ratio : 16:9
Frame rate mode : Constant
Frame rate : 30.000 FPS
Color space : YUV
Chroma subsampling : 4:2:0
Bit depth : 8 bits
Scan type : Progressive
Bits/(Pixel*Frame) : 0.069
Codec configuration box : avcC

AJPW Royal Road Tournament

Audio
ID : 2
Format : AAC LC
Format/Info : Advanced Audio
Codec ID : mp4a-40-2
Duration : 2 h 27 min
Bit rate mode : Variable
Bit rate : 125 kb/s
Maximum bit rate : 279 kb/s
Channel(s) : 2 channels
Channel layout : L R
Sampling rate : 44.1 kHz
Frame rate : 43.066 FPS (1024 SPF)
Compression mode : Lossy
Stream size : 132 MiB (6%)
mdhd_Duration : 8865982

AJPW Royal Road Tournament

Complete name : 2021.08.18.AJPW.Royal.Road.Tournament.Day.2.mp4
Format : MPEG-4
Format profile : Base Media
Codec ID : isom
File size : 2.11 GiB
Duration : 2 h 27 min
Overall bit rate mode : Variable
Overall bit rate : 2 040 kb/s

Video
ID : 1
Format : AVC
Format/Info : Advanced Video
Duration : 2 h 27 min
Duration_FirstFrame : 33 ms
Bit rate : 1 904 kb/s
Width : 1 280 pixels
Height : 720 pixels
Display aspect ratio : 16:9
Frame rate mode : Constant
Frame rate : 30.000 FPS
Color space : YUV
Chroma subsampling : 4:2:0
Bit depth : 8 bits
Scan type : Progressive
Bits/(Pixel*Frame) : 0.069
Codec configuration box : avcC

AJPW Royal Road Tournament

Audio
ID : 2
Format : AAC LC
Format/Info : Advanced Audio
Codec ID : mp4a-40-2
Duration : 2 h 27 min
Bit rate mode : Variable
Bit rate : 125 kb/s
Maximum bit rate : 279 kb/s
Channel(s) : 2 channels
Channel layout : L R
Sampling rate : 44.1 kHz
Frame rate : 43.066 FPS (1024 SPF)
Compression mode : Lossy
Stream size : 132 MiB (6%)
mdhd_Duration : 8865982

AJPW Royal Road Tournament

Complete name : 2021.08.18.AJPW.Royal.Road.Tournament.Day.2.mp4
Format : MPEG-4
Format profile : Base Media
Codec ID : isom
File size : 2.11 GiB
Duration : 2 h 27 min
Overall bit rate mode : Variable
Overall bit rate : 2 040 kb/s

Video
ID : 1
Format : AVC
Format/Info : Advanced Video
Duration : 2 h 27 min
Duration_FirstFrame : 33 ms
Bit rate : 1 904 kb/s
Width : 1 280 pixels
Height : 720 pixels
Display aspect ratio : 16:9
Frame rate mode : Constant
Frame rate : 30.000 FPS
Color space : YUV
Chroma subsampling : 4:2:0
Bit depth : 8 bits
Scan type : Progressive
Bits/(Pixel*Frame) : 0.069
Codec configuration box : avcC

AJPW Royal Road Tournament

Audio
ID : 2
Format : AAC LC
Format/Info : Advanced Audio
Codec ID : mp4a-40-2
Duration : 2 h 27 min
Bit rate mode : Variable
Bit rate : 125 kb/s
Maximum bit rate : 279 kb/s
Channel(s) : 2 channels
Channel layout : L R
Sampling rate : 44.1 kHz
Frame rate : 43.066 FPS (1024 SPF)
Compression mode : Lossy
Stream size : 132 MiB (6%)
mdhd_Duration : 8865982

AJPW Royal Road Tournament

Complete name : 2021.08.18.AJPW.Royal.Road.Tournament.Day.2.mp4
Format : MPEG-4
Format profile : Base Media
Codec ID : isom
File size : 2.11 GiB
Duration : 2 h 27 min
Overall bit rate mode : Variable
Overall bit rate : 2 040 kb/s

Video
ID : 1
Format : AVC
Format/Info : Advanced Video
Duration : 2 h 27 min
Duration_FirstFrame : 33 ms
Bit rate : 1 904 kb/s
Width : 1 280 pixels
Height : 720 pixels
Display aspect ratio : 16:9
Frame rate mode : Constant
Frame rate : 30.000 FPS
Color space : YUV
Chroma subsampling : 4:2:0
Bit depth : 8 bits
Scan type : Progressive
Bits/(Pixel*Frame) : 0.069
Codec configuration box : avcC

AJPW Royal Road Tournament

Audio
ID : 2
Format : AAC LC
Format/Info : Advanced Audio
Codec ID : mp4a-40-2
Duration : 2 h 27 min
Bit rate mode : Variable
Bit rate : 125 kb/s
Maximum bit rate : 279 kb/s
Channel(s) : 2 channels
Channel layout : L R
Sampling rate : 44.1 kHz
Frame rate : 43.066 FPS (1024 SPF)
Compression mode : Lossy
Stream size : 132 MiB (6%)
mdhd_Duration : 8865982

AJPW Royal Road Tournament

Complete name : 2021.08.18.AJPW.Royal.Road.Tournament.Day.2.mp4
Format : MPEG-4
Format profile : Base Media
Codec ID : isom
File size : 2.11 GiB
Duration : 2 h 27 min
Overall bit rate mode : Variable
Overall bit rate : 2 040 kb/s

Video
ID : 1
Format : AVC
Format/Info : Advanced Video
Duration : 2 h 27 min
Duration_FirstFrame : 33 ms
Bit rate : 1 904 kb/s
Width : 1 280 pixels
Height : 720 pixels
Display aspect ratio : 16:9
Frame rate mode : Constant
Frame rate : 30.000 FPS
Color space : YUV
Chroma subsampling : 4:2:0
Bit depth : 8 bits
Scan type : Progressive
Bits/(Pixel*Frame) : 0.069
Codec configuration box : avcC

AJPW Royal Road Tournament

Audio
ID : 2
Format : AAC LC
Format/Info : Advanced Audio
Codec ID : mp4a-40-2
Duration : 2 h 27 min
Bit rate mode : Variable
Bit rate : 125 kb/s
Maximum bit rate : 279 kb/s
Channel(s) : 2 channels
Channel layout : L R
Sampling rate : 44.1 kHz
Frame rate : 43.066 FPS (1024 SPF)
Compression mode : Lossy
Stream size : 132 MiB (6%)
mdhd_Duration : 8865982

AJPW Royal Road Tournament

Complete name : 2021.08.18.AJPW.Royal.Road.Tournament.Day.2.mp4
Format : MPEG-4
Format profile : Base Media
Codec ID : isom
File size : 2.11 GiB
Duration : 2 h 27 min
Overall bit rate mode : Variable
Overall bit rate : 2 040 kb/s

Video
ID : 1
Format : AVC
Format/Info : Advanced Video
Duration : 2 h 27 min
Duration_FirstFrame : 33 ms
Bit rate : 1 904 kb/s
Width : 1 280 pixels
Height : 720 pixels
Display aspect ratio : 16:9
Frame rate mode : Constant
Frame rate : 30.000 FPS
Color space : YUV
Chroma subsampling : 4:2:0
Bit depth : 8 bits
Scan type : Progressive
Bits/(Pixel*Frame) : 0.069
Codec configuration box : avcC

AJPW Royal Road Tournament

Audio
ID : 2
Format : AAC LC
Format/Info : Advanced Audio
Codec ID : mp4a-40-2
Duration : 2 h 27 min
Bit rate mode : Variable
Bit rate : 125 kb/s
Maximum bit rate : 279 kb/s
Channel(s) : 2 channels
Channel layout : L R
Sampling rate : 44.1 kHz
Frame rate : 43.066 FPS (1024 SPF)
Compression mode : Lossy
Stream size : 132 MiB (6%)
mdhd_Duration : 8865982

AJPW Royal Road Tournament

Complete name : 2021.08.18.AJPW.Royal.Road.Tournament.Day.2.mp4
Format : MPEG-4
Format profile : Base Media
Codec ID : isom
File size : 2.11 GiB
Duration : 2 h 27 min
Overall bit rate mode : Variable
Overall bit rate : 2 040 kb/s

Video
ID : 1
Format : AVC
Format/Info : Advanced Video
Duration : 2 h 27 min
Duration_FirstFrame : 33 ms
Bit rate : 1 904 kb/s
Width : 1 280 pixels
Height : 720 pixels
Display aspect ratio : 16:9
Frame rate mode : Constant
Frame rate : 30.000 FPS
Color space : YUV
Chroma subsampling : 4:2:0
Bit depth : 8 bits
Scan type : Progressive
Bits/(Pixel*Frame) : 0.069
Codec configuration box : avcC

AJPW Royal Road Tournament

Audio
ID : 2
Format : AAC LC
Format/Info : Advanced Audio
Codec ID : mp4a-40-2
Duration : 2 h 27 min
Bit rate mode : Variable
Bit rate : 125 kb/s
Maximum bit rate : 279 kb/s
Channel(s) : 2 channels
Channel layout : L R
Sampling rate : 44.1 kHz
Frame rate : 43.066 FPS (1024 SPF)
Compression mode : Lossy
Stream size : 132 MiB (6%)
mdhd_Duration : 8865982

AJPW Royal Road Tournament

Complete name : 2021.08.18.AJPW.Royal.Road.Tournament.Day.2.mp4
Format : MPEG-4
Format profile : Base Media
Codec ID : isom
File size : 2.11 GiB
Duration : 2 h 27 min
Overall bit rate mode : Variable
Overall bit rate : 2 040 kb/s

Video
ID : 1
Format : AVC
Format/Info : Advanced Video
Duration : 2 h 27 min
Duration_FirstFrame : 33 ms
Bit rate : 1 904 kb/s
Width : 1 280 pixels
Height : 720 pixels
Display aspect ratio : 16:9
Frame rate mode : Constant
Frame rate : 30.000 FPS
Color space : YUV
Chroma subsampling : 4:2:0
Bit depth : 8 bits
Scan type : Progressive
Bits/(Pixel*Frame) : 0.069
Codec configuration box : avcC

AJPW Royal Road Tournament

Audio
ID : 2
Format : AAC LC
Format/Info : Advanced Audio
Codec ID : mp4a-40-2
Duration : 2 h 27 min
Bit rate mode : Variable
Bit rate : 125 kb/s
Maximum bit rate : 279 kb/s
Channel(s) : 2 channels
Channel layout : L R
Sampling rate : 44.1 kHz
Frame rate : 43.066 FPS (1024 SPF)
Compression mode : Lossy
Stream size : 132 MiB (6%)
mdhd_Duration : 8865982

AJPW Royal Road Tournament

Complete name : 2021.08.18.AJPW.Royal.Road.Tournament.Day.2.mp4
Format : MPEG-4
Format profile : Base Media
Codec ID : isom
File size : 2.11 GiB
Duration : 2 h 27 min
Overall bit rate mode : Variable
Overall bit rate : 2 040 kb/s

Video
ID : 1
Format : AVC
Format/Info : Advanced Video
Duration : 2 h 27 min
Duration_FirstFrame : 33 ms
Bit rate : 1 904 kb/s
Width : 1 280 pixels
Height : 720 pixels
Display aspect ratio : 16:9
Frame rate mode : Constant
Frame rate : 30.000 FPS
Color space : YUV
Chroma subsampling : 4:2:0
Bit depth : 8 bits
Scan type : Progressive
Bits/(Pixel*Frame) : 0.069
Codec configuration box : avcC

AJPW Royal Road Tournament

Audio
ID : 2
Format : AAC LC
Format/Info : Advanced Audio
Codec ID : mp4a-40-2
Duration : 2 h 27 min
Bit rate mode : Variable
Bit rate : 125 kb/s
Maximum bit rate : 279 kb/s
Channel(s) : 2 channels
Channel layout : L R
Sampling rate : 44.1 kHz
Frame rate : 43.066 FPS (1024 SPF)
Compression mode : Lossy
Stream size : 132 MiB (6%)
mdhd_Duration : 8865982

AJPW Royal Road Tournament

Complete name : 2021.08.18.AJPW.Royal.Road.Tournament.Day.2.mp4
Format : MPEG-4
Format profile : Base Media
Codec ID : isom
File size : 2.11 GiB
Duration : 2 h 27 min
Overall bit rate mode : Variable
Overall bit rate : 2 040 kb/s

Video
ID : 1
Format : AVC
Format/Info : Advanced Video
Duration : 2 h 27 min
Duration_FirstFrame : 33 ms
Bit rate : 1 904 kb/s
Width : 1 280 pixels
Height : 720 pixels
Display aspect ratio : 16:9
Frame rate mode : Constant
Frame rate : 30.000 FPS
Color space : YUV
Chroma subsampling : 4:2:0
Bit depth : 8 bits
Scan type : Progressive
Bits/(Pixel*Frame) : 0.069
Codec configuration box : avcC

AJPW Royal Road Tournament

Audio
ID : 2
Format : AAC LC
Format/Info : Advanced Audio
Codec ID : mp4a-40-2
Duration : 2 h 27 min
Bit rate mode : Variable
Bit rate : 125 kb/s
Maximum bit rate : 279 kb/s
Channel(s) : 2 channels
Channel layout : L R
Sampling rate : 44.1 kHz
Frame rate : 43.066 FPS (1024 SPF)
Compression mode : Lossy
Stream size : 132 MiB (6%)
mdhd_Duration : 8865982

AJPW Royal Road Tournament

Complete name : 2021.08.18.AJPW.Royal.Road.Tournament.Day.2.mp4
Format : MPEG-4
Format profile : Base Media
Codec ID : isom
File size : 2.11 GiB
Duration : 2 h 27 min
Overall bit rate mode : Variable
Overall bit rate : 2 040 kb/s

Video
ID : 1
Format : AVC
Format/Info : Advanced Video
Duration : 2 h 27 min
Duration_FirstFrame : 33 ms
Bit rate : 1 904 kb/s
Width : 1 280 pixels
Height : 720 pixels
Display aspect ratio : 16:9
Frame rate mode : Constant
Frame rate : 30.000 FPS
Color space : YUV
Chroma subsampling : 4:2:0
Bit depth : 8 bits
Scan type : Progressive
Bits/(Pixel*Frame) : 0.069
Codec configuration box : avcC

AJPW Royal Road Tournament

Audio
ID : 2
Format : AAC LC
Format/Info : Advanced Audio
Codec ID : mp4a-40-2
Duration : 2 h 27 min
Bit rate mode : Variable
Bit rate : 125 kb/s
Maximum bit rate : 279 kb/s
Channel(s) : 2 channels
Channel layout : L R
Sampling rate : 44.1 kHz
Frame rate : 43.066 FPS (1024 SPF)
Compression mode : Lossy
Stream size : 132 MiB (6%)
mdhd_Duration : 8865982

AJPW Royal Road Tournament

Complete name : 2021.08.18.AJPW.Royal.Road.Tournament.Day.2.mp4
Format : MPEG-4
Format profile : Base Media
Codec ID : isom
File size : 2.11 GiB
Duration : 2 h 27 min
Overall bit rate mode : Variable
Overall bit rate : 2 040 kb/s

Video
ID : 1
Format : AVC
Format/Info : Advanced Video
Duration : 2 h 27 min
Duration_FirstFrame : 33 ms
Bit rate : 1 904 kb/s
Width : 1 280 pixels
Height : 720 pixels
Display aspect ratio : 16:9
Frame rate mode : Constant
Frame rate : 30.000 FPS
Color space : YUV
Chroma subsampling : 4:2:0
Bit depth : 8 bits
Scan type : Progressive
Bits/(Pixel*Frame) : 0.069
Codec configuration box : avcC

AJPW Royal Road Tournament

Audio
ID : 2
Format : AAC LC
Format/Info : Advanced Audio
Codec ID : mp4a-40-2
Duration : 2 h 27 min
Bit rate mode : Variable
Bit rate : 125 kb/s
Maximum bit rate : 279 kb/s
Channel(s) : 2 channels
Channel layout : L R
Sampling rate : 44.1 kHz
Frame rate : 43.066 FPS (1024 SPF)
Compression mode : Lossy
Stream size : 132 MiB (6%)
mdhd_Duration : 8865982

AJPW Royal Road Tournament

Complete name : 2021.08.18.AJPW.Royal.Road.Tournament.Day.2.mp4
Format : MPEG-4
Format profile : Base Media
Codec ID : isom
File size : 2.11 GiB
Duration : 2 h 27 min
Overall bit rate mode : Variable
Overall bit rate : 2 040 kb/s

Video
ID : 1
Format : AVC
Format/Info : Advanced Video
Duration : 2 h 27 min
Duration_FirstFrame : 33 ms
Bit rate : 1 904 kb/s
Width : 1 280 pixels
Height : 720 pixels
Display aspect ratio : 16:9
Frame rate mode : Constant
Frame rate : 30.000 FPS
Color space : YUV
Chroma subsampling : 4:2:0
Bit depth : 8 bits
Scan type : Progressive
Bits/(Pixel*Frame) : 0.069
Codec configuration box : avcC

AJPW Royal Road Tournament

Audio
ID : 2
Format : AAC LC
Format/Info : Advanced Audio
Codec ID : mp4a-40-2
Duration : 2 h 27 min
Bit rate mode : Variable
Bit rate : 125 kb/s
Maximum bit rate : 279 kb/s
Channel(s) : 2 channels
Channel layout : L R
Sampling rate : 44.1 kHz
Frame rate : 43.066 FPS (1024 SPF)
Compression mode : Lossy
Stream size : 132 MiB (6%)
mdhd_Duration : 8865982

AJPW Royal Road Tournament

Complete name : 2021.08.18.AJPW.Royal.Road.Tournament.Day.2.mp4
Format : MPEG-4
Format profile : Base Media
Codec ID : isom
File size : 2.11 GiB
Duration : 2 h 27 min
Overall bit rate mode : Variable
Overall bit rate : 2 040 kb/s

Video
ID : 1
Format : AVC
Format/Info : Advanced Video
Duration : 2 h 27 min
Duration_FirstFrame : 33 ms
Bit rate : 1 904 kb/s
Width : 1 280 pixels
Height : 720 pixels
Display aspect ratio : 16:9
Frame rate mode : Constant
Frame rate : 30.000 FPS
Color space : YUV
Chroma subsampling : 4:2:0
Bit depth : 8 bits
Scan type : Progressive
Bits/(Pixel*Frame) : 0.069
Codec configuration box : avcC

AJPW Royal Road Tournament

Audio
ID : 2
Format : AAC LC
Format/Info : Advanced Audio
Codec ID : mp4a-40-2
Duration : 2 h 27 min
Bit rate mode : Variable
Bit rate : 125 kb/s
Maximum bit rate : 279 kb/s
Channel(s) : 2 channels
Channel layout : L R
Sampling rate : 44.1 kHz
Frame rate : 43.066 FPS (1024 SPF)
Compression mode : Lossy
Stream size : 132 MiB (6%)
mdhd_Duration : 8865982

AJPW Royal Road Tournament

Complete name : 2021.08.18.AJPW.Royal.Road.Tournament.Day.2.mp4
Format : MPEG-4
Format profile : Base Media
Codec ID : isom
File size : 2.11 GiB
Duration : 2 h 27 min
Overall bit rate mode : Variable
Overall bit rate : 2 040 kb/s

Video
ID : 1
Format : AVC
Format/Info : Advanced Video
Duration : 2 h 27 min
Duration_FirstFrame : 33 ms
Bit rate : 1 904 kb/s
Width : 1 280 pixels
Height : 720 pixels
Display aspect ratio : 16:9
Frame rate mode : Constant
Frame rate : 30.000 FPS
Color space : YUV
Chroma subsampling : 4:2:0
Bit depth : 8 bits
Scan type : Progressive
Bits/(Pixel*Frame) : 0.069
Codec configuration box : avcC

AJPW Royal Road Tournament

Audio
ID : 2
Format : AAC LC
Format/Info : Advanced Audio
Codec ID : mp4a-40-2
Duration : 2 h 27 min
Bit rate mode : Variable
Bit rate : 125 kb/s
Maximum bit rate : 279 kb/s
Channel(s) : 2 channels
Channel layout : L R
Sampling rate : 44.1 kHz
Frame rate : 43.066 FPS (1024 SPF)
Compression mode : Lossy
Stream size : 132 MiB (6%)
mdhd_Duration : 8865982

AJPW Royal Road Tournament

Complete name : 2021.08.18.AJPW.Royal.Road.Tournament.Day.2.mp4
Format : MPEG-4
Format profile : Base Media
Codec ID : isom
File size : 2.11 GiB
Duration : 2 h 27 min
Overall bit rate mode : Variable
Overall bit rate : 2 040 kb/s

Video
ID : 1
Format : AVC
Format/Info : Advanced Video
Duration : 2 h 27 min
Duration_FirstFrame : 33 ms
Bit rate : 1 904 kb/s
Width : 1 280 pixels
Height : 720 pixels
Display aspect ratio : 16:9
Frame rate mode : Constant
Frame rate : 30.000 FPS
Color space : YUV
Chroma subsampling : 4:2:0
Bit depth : 8 bits
Scan type : Progressive
Bits/(Pixel*Frame) : 0.069
Codec configuration box : avcC

AJPW Royal Road Tournament

Audio
ID : 2
Format : AAC LC
Format/Info : Advanced Audio
Codec ID : mp4a-40-2
Duration : 2 h 27 min
Bit rate mode : Variable
Bit rate : 125 kb/s
Maximum bit rate : 279 kb/s
Channel(s) : 2 channels
Channel layout : L R
Sampling rate : 44.1 kHz
Frame rate : 43.066 FPS (1024 SPF)
Compression mode : Lossy
Stream size : 132 MiB (6%)
mdhd_Duration : 8865982

AJPW Royal Road Tournament

Complete name : 2021.08.18.AJPW.Royal.Road.Tournament.Day.2.mp4
Format : MPEG-4
Format profile : Base Media
Codec ID : isom
File size : 2.11 GiB
Duration : 2 h 27 min
Overall bit rate mode : Variable
Overall bit rate : 2 040 kb/s

Video
ID : 1
Format : AVC
Format/Info : Advanced Video
Duration : 2 h 27 min
Duration_FirstFrame : 33 ms
Bit rate : 1 904 kb/s
Width : 1 280 pixels
Height : 720 pixels
Display aspect ratio : 16:9
Frame rate mode : Constant
Frame rate : 30.000 FPS
Color space : YUV
Chroma subsampling : 4:2:0
Bit depth : 8 bits
Scan type : Progressive
Bits/(Pixel*Frame) : 0.069
Codec configuration box : avcC

AJPW Royal Road Tournament

Audio
ID : 2
Format : AAC LC
Format/Info : Advanced Audio
Codec ID : mp4a-40-2
Duration : 2 h 27 min
Bit rate mode : Variable
Bit rate : 125 kb/s
Maximum bit rate : 279 kb/s
Channel(s) : 2 channels
Channel layout : L R
Sampling rate : 44.1 kHz
Frame rate : 43.066 FPS (1024 SPF)
Compression mode : Lossy
Stream size : 132 MiB (6%)
mdhd_Duration : 8865982

AJPW Royal Road Tournament

Complete name : 2021.08.18.AJPW.Royal.Road.Tournament.Day.2.mp4
Format : MPEG-4
Format profile : Base Media
Codec ID : isom
File size : 2.11 GiB
Duration : 2 h 27 min
Overall bit rate mode : Variable
Overall bit rate : 2 040 kb/s

Video
ID : 1
Format : AVC
Format/Info : Advanced Video
Duration : 2 h 27 min
Duration_FirstFrame : 33 ms
Bit rate : 1 904 kb/s
Width : 1 280 pixels
Height : 720 pixels
Display aspect ratio : 16:9
Frame rate mode : Constant
Frame rate : 30.000 FPS
Color space : YUV
Chroma subsampling : 4:2:0
Bit depth : 8 bits
Scan type : Progressive
Bits/(Pixel*Frame) : 0.069
Codec configuration box : avcC

AJPW Royal Road Tournament

Audio
ID : 2
Format : AAC LC
Format/Info : Advanced Audio
Codec ID : mp4a-40-2
Duration : 2 h 27 min
Bit rate mode : Variable
Bit rate : 125 kb/s
Maximum bit rate : 279 kb/s
Channel(s) : 2 channels
Channel layout : L R
Sampling rate : 44.1 kHz
Frame rate : 43.066 FPS (1024 SPF)
Compression mode : Lossy
Stream size : 132 MiB (6%)
mdhd_Duration : 8865982

AJPW Royal Road Tournament

Complete name : 2021.08.18.AJPW.Royal.Road.Tournament.Day.2.mp4
Format : MPEG-4
Format profile : Base Media
Codec ID : isom
File size : 2.11 GiB
Duration : 2 h 27 min
Overall bit rate mode : Variable
Overall bit rate : 2 040 kb/s

Video
ID : 1
Format : AVC
Format/Info : Advanced Video
Duration : 2 h 27 min
Duration_FirstFrame : 33 ms
Bit rate : 1 904 kb/s
Width : 1 280 pixels
Height : 720 pixels
Display aspect ratio : 16:9
Frame rate mode : Constant
Frame rate : 30.000 FPS
Color space : YUV
Chroma subsampling : 4:2:0
Bit depth : 8 bits
Scan type : Progressive
Bits/(Pixel*Frame) : 0.069
Codec configuration box : avcC

AJPW Royal Road Tournament

Audio
ID : 2
Format : AAC LC
Format/Info : Advanced Audio
Codec ID : mp4a-40-2
Duration : 2 h 27 min
Bit rate mode : Variable
Bit rate : 125 kb/s
Maximum bit rate : 279 kb/s
Channel(s) : 2 channels
Channel layout : L R
Sampling rate : 44.1 kHz
Frame rate : 43.066 FPS (1024 SPF)
Compression mode : Lossy
Stream size : 132 MiB (6%)
mdhd_Duration : 8865982

AJPW Royal Road Tournament

Complete name : 2021.08.18.AJPW.Royal.Road.Tournament.Day.2.mp4
Format : MPEG-4
Format profile : Base Media
Codec ID : isom
File size : 2.11 GiB
Duration : 2 h 27 min
Overall bit rate mode : Variable
Overall bit rate : 2 040 kb/s

Video
ID : 1
Format : AVC
Format/Info : Advanced Video
Duration : 2 h 27 min
Duration_FirstFrame : 33 ms
Bit rate : 1 904 kb/s
Width : 1 280 pixels
Height : 720 pixels
Display aspect ratio : 16:9
Frame rate mode : Constant
Frame rate : 30.000 FPS
Color space : YUV
Chroma subsampling : 4:2:0
Bit depth : 8 bits
Scan type : Progressive
Bits/(Pixel*Frame) : 0.069
Codec configuration box : avcC

AJPW Royal Road Tournament

Audio
ID : 2
Format : AAC LC
Format/Info : Advanced Audio
Codec ID : mp4a-40-2
Duration : 2 h 27 min
Bit rate mode : Variable
Bit rate : 125 kb/s
Maximum bit rate : 279 kb/s
Channel(s) : 2 channels
Channel layout : L R
Sampling rate : 44.1 kHz
Frame rate : 43.066 FPS (1024 SPF)
Compression mode : Lossy
Stream size : 132 MiB (6%)
mdhd_Duration : 8865982

AJPW Royal Road Tournament

Complete name : 2021.08.18.AJPW.Royal.Road.Tournament.Day.2.mp4
Format : MPEG-4
Format profile : Base Media
Codec ID : isom
File size : 2.11 GiB
Duration : 2 h 27 min
Overall bit rate mode : Variable
Overall bit rate : 2 040 kb/s

Video
ID : 1
Format : AVC
Format/Info : Advanced Video
Duration : 2 h 27 min
Duration_FirstFrame : 33 ms
Bit rate : 1 904 kb/s
Width : 1 280 pixels
Height : 720 pixels
Display aspect ratio : 16:9
Frame rate mode : Constant
Frame rate : 30.000 FPS
Color space : YUV
Chroma subsampling : 4:2:0
Bit depth : 8 bits
Scan type : Progressive
Bits/(Pixel*Frame) : 0.069
Codec configuration box : avcC

AJPW Royal Road Tournament

Audio
ID : 2
Format : AAC LC
Format/Info : Advanced Audio
Codec ID : mp4a-40-2
Duration : 2 h 27 min
Bit rate mode : Variable
Bit rate : 125 kb/s
Maximum bit rate : 279 kb/s
Channel(s) : 2 channels
Channel layout : L R
Sampling rate : 44.1 kHz
Frame rate : 43.066 FPS (1024 SPF)
Compression mode : Lossy
Stream size : 132 MiB (6%)
mdhd_Duration : 8865982

AJPW Royal Road Tournament

 

[collapse]

 

 

https://dx-tv.com/

You May Also Like

Leave a Reply

Your email address will not be published. Required fields are marked *

This site uses Akismet to reduce spam. Learn how your comment data is processed.