AJPW Royal Road Tournament 2021 Day 1 Online Free

AJPW Royal Road Tournament 2021 08 15 Day 1 Afternoon /Evening Online Free Replay DX-TV

Contents show

AJPW Royal Road Tournament

 

 AJPW Royal Road Tournament

 

 

 

Download Links with premium High Speed


 

Dopapk

 

 

Show Links

 

http://shrt10.com/yLbhwI
http://shrt10.com/6uadMM

 

[collapse]

 

 

Nitroflare

 

 

Show Links

 

http://shrt10.com/PeLC93KIY
http://shrt10.com/yDB8G

 

[collapse]

 

 

Rapidgator

 

 

Show Links

 

http://shrt10.com/HP2SPbEn2
http://shrt10.com/WzKP8Jz5L

 

[collapse]

 

 

Uploaded

 

 

Show Links

 

http://shrt10.com/4CUXoET
http://shrt10.com/yAZY4J9F

 

[collapse]

 

 

Watch online

 

Server 1

 

 

 

 

AJPW Royal Road Tournament

watch now

 

 

 

 

Server-2

 

 

 

 

AJPW Royal Road Tournament

watch now

 

 

 

|Server-3

 

 

 

 

AJPW Royal Road Tournament

watch now

 

 

Uploaded By Site DX-TV.com

 

 

Show Info This Show

AJPW Royal Road Tournament

 

Complete name : 2021.08.15.AJPW.Royal.Road.Tournament.Day.1.Afternoon.mp4
Format : MPEG-4
Format profile : Base Media
Codec ID : isom
File size : 2.35 GiB
Duration : 2 h 44 min
Overall bit rate : 2 048 kb/s

Video
ID : 1
Format : AVC
Format/Info : Advanced Video
Codec ID : avc1
Duration : 2 h 44 min
Bit rate : 1 944 kb/s
Width : 1 920 pixels
Height : 1 080 pixels
Display aspect ratio : 16:9
Frame rate mode : Variable
Frame rate : 29.970 (29970/1000) FPS
Minimum frame rate : 19.608 FPS
Maximum frame rate : 32.258 FPS
Color space : YUV
Chroma subsampling : 4:2:0
Bit depth : 8 bits
Scan type : Progressive
Bits/(Pixel*Frame) : 0.031
Stream size : 2.23 GiB (95%)
Color range : Full
Color primaries : BT.709
Transfer characteristics : BT.709
Matrix coefficients : BT.709
Codec configuration box : avc

AJPW Royal Road Tournament

Audio
ID : 2
Format : AAC LC
Codec ID : mp4a-40-2
Duration : 2 h 44 min
Bit rate mode : Constant
Bit rate : 96.0 kb/s
Channel(s) : 2 channels
Channel layout : L R
Sampling rate : 48.0 kHz
Frame rate : 46.875 FPS
Compression mode : Lossy
Stream size : 113 MiB (5%)
Default : Yes
Alternate group : 1

AJPW Royal Road Tournament

Complete name : 2021.08.15.AJPW.Royal.Road.Tournament.Day.1.Evening.mp4
Format : MPEG-4
Format profile : Base Media
Codec ID : isom
File size : 2.19 GiB
Duration : 2 h 33 min
Overall bit rate : 2 048 kb/s

Video
ID : 1
Format : AVC
Format/Info : Advanced Video
Duration : 2 h 33 min
Bit rate : 1 944 kb/s
Width : 1 920 pixels
Height : 1 080 pixels
Display aspect ratio : 16:9
Frame rate mode : Variable
Frame rate : 29.970 (29970/1000) FPS
Minimum frame rate : 19.608 FPS
Maximum frame rate : 32.258 FPS
Color space : YUV
Chroma subsampling : 4:2:0
Bit depth : 8 bits
Scan type : Progressive
Bits/(Pixel*Frame) : 0.031
Stream size : 2.08 GiB (95%)
Color range : Full
Color primaries : BT.709
Transfer characteristics : BT.709
Matrix coefficients : BT.709
Codec configuration box : avcC

AJPW Royal Road Tournament

Audio
ID : 2
Format : AAC LC
Format/Info : Advanced Audio
Codec ID : mp4a-40-2
Duration : 2 h 33 min
Bit rate mode : Constant
Bit rate : 96.0 kb/s
Channel(s) : 2 channels
Channel layout : L R
Sampling rate : 48.0 kHz
Frame rate : 46.875 FPS (1024 SPF)
Compression mode : Lossy
Stream size : 105 MiB (5%)
Default : Yes
Alternate group : 1

AJPW Royal Road Tournament

Complete name : 2021.08.15.AJPW.Royal.Road.Tournament.Day.1.Afternoon.mp4
Format : MPEG-4
Format profile : Base Media
Codec ID : isom
File size : 2.35 GiB
Duration : 2 h 44 min
Overall bit rate : 2 048 kb/s

Video
ID : 1
Format : AVC
Format/Info : Advanced Video
Codec ID : avc1
Duration : 2 h 44 min
Bit rate : 1 944 kb/s
Width : 1 920 pixels
Height : 1 080 pixels
Display aspect ratio : 16:9
Frame rate mode : Variable
Frame rate : 29.970 (29970/1000) FPS
Minimum frame rate : 19.608 FPS
Maximum frame rate : 32.258 FPS
Color space : YUV
Chroma subsampling : 4:2:0
Bit depth : 8 bits
Scan type : Progressive
Bits/(Pixel*Frame) : 0.031
Stream size : 2.23 GiB (95%)
Color range : Full
Color primaries : BT.709
Transfer characteristics : BT.709
Matrix coefficients : BT.709
Codec configuration box : avc

AJPW Royal Road Tournament

Audio
ID : 2
Format : AAC LC
Codec ID : mp4a-40-2
Duration : 2 h 44 min
Bit rate mode : Constant
Bit rate : 96.0 kb/s
Channel(s) : 2 channels
Channel layout : L R
Sampling rate : 48.0 kHz
Frame rate : 46.875 FPS
Compression mode : Lossy
Stream size : 113 MiB (5%)
Default : Yes
Alternate group : 1

AJPW Royal Road Tournament

Complete name : 2021.08.15.AJPW.Royal.Road.Tournament.Day.1.Evening.mp4
Format : MPEG-4
Format profile : Base Media
Codec ID : isom
File size : 2.19 GiB
Duration : 2 h 33 min
Overall bit rate : 2 048 kb/s

Video
ID : 1
Format : AVC
Format/Info : Advanced Video
Duration : 2 h 33 min
Bit rate : 1 944 kb/s
Width : 1 920 pixels
Height : 1 080 pixels
Display aspect ratio : 16:9
Frame rate mode : Variable
Frame rate : 29.970 (29970/1000) FPS
Minimum frame rate : 19.608 FPS
Maximum frame rate : 32.258 FPS
Color space : YUV
Chroma subsampling : 4:2:0
Bit depth : 8 bits
Scan type : Progressive
Bits/(Pixel*Frame) : 0.031
Stream size : 2.08 GiB (95%)
Color range : Full
Color primaries : BT.709
Transfer characteristics : BT.709
Matrix coefficients : BT.709
Codec configuration box : avcC

AJPW Royal Road Tournament

Audio
ID : 2
Format : AAC LC
Format/Info : Advanced Audio
Codec ID : mp4a-40-2
Duration : 2 h 33 min
Bit rate mode : Constant
Bit rate : 96.0 kb/s
Channel(s) : 2 channels
Channel layout : L R
Sampling rate : 48.0 kHz
Frame rate : 46.875 FPS (1024 SPF)
Compression mode : Lossy
Stream size : 105 MiB (5%)
Default : Yes
Alternate group : 1

AJPW Royal Road Tournament

Complete name : 2021.08.15.AJPW.Royal.Road.Tournament.Day.1.Afternoon.mp4
Format : MPEG-4
Format profile : Base Media
Codec ID : isom
File size : 2.35 GiB
Duration : 2 h 44 min
Overall bit rate : 2 048 kb/s

Video
ID : 1
Format : AVC
Format/Info : Advanced Video
Codec ID : avc1
Duration : 2 h 44 min
Bit rate : 1 944 kb/s
Width : 1 920 pixels
Height : 1 080 pixels
Display aspect ratio : 16:9
Frame rate mode : Variable
Frame rate : 29.970 (29970/1000) FPS
Minimum frame rate : 19.608 FPS
Maximum frame rate : 32.258 FPS
Color space : YUV
Chroma subsampling : 4:2:0
Bit depth : 8 bits
Scan type : Progressive
Bits/(Pixel*Frame) : 0.031
Stream size : 2.23 GiB (95%)
Color range : Full
Color primaries : BT.709
Transfer characteristics : BT.709
Matrix coefficients : BT.709
Codec configuration box : avc

AJPW Royal Road Tournament

Audio
ID : 2
Format : AAC LC
Codec ID : mp4a-40-2
Duration : 2 h 44 min
Bit rate mode : Constant
Bit rate : 96.0 kb/s
Channel(s) : 2 channels
Channel layout : L R
Sampling rate : 48.0 kHz
Frame rate : 46.875 FPS
Compression mode : Lossy
Stream size : 113 MiB (5%)
Default : Yes
Alternate group : 1

AJPW Royal Road Tournament

Complete name : 2021.08.15.AJPW.Royal.Road.Tournament.Day.1.Evening.mp4
Format : MPEG-4
Format profile : Base Media
Codec ID : isom
File size : 2.19 GiB
Duration : 2 h 33 min
Overall bit rate : 2 048 kb/s

Video
ID : 1
Format : AVC
Format/Info : Advanced Video
Duration : 2 h 33 min
Bit rate : 1 944 kb/s
Width : 1 920 pixels
Height : 1 080 pixels
Display aspect ratio : 16:9
Frame rate mode : Variable
Frame rate : 29.970 (29970/1000) FPS
Minimum frame rate : 19.608 FPS
Maximum frame rate : 32.258 FPS
Color space : YUV
Chroma subsampling : 4:2:0
Bit depth : 8 bits
Scan type : Progressive
Bits/(Pixel*Frame) : 0.031
Stream size : 2.08 GiB (95%)
Color range : Full
Color primaries : BT.709
Transfer characteristics : BT.709
Matrix coefficients : BT.709
Codec configuration box : avcC

AJPW Royal Road Tournament

Audio
ID : 2
Format : AAC LC
Format/Info : Advanced Audio
Codec ID : mp4a-40-2
Duration : 2 h 33 min
Bit rate mode : Constant
Bit rate : 96.0 kb/s
Channel(s) : 2 channels
Channel layout : L R
Sampling rate : 48.0 kHz
Frame rate : 46.875 FPS (1024 SPF)
Compression mode : Lossy
Stream size : 105 MiB (5%)
Default : Yes
Alternate group : 1

AJPW Royal Road Tournament

Complete name : 2021.08.15.AJPW.Royal.Road.Tournament.Day.1.Afternoon.mp4
Format : MPEG-4
Format profile : Base Media
Codec ID : isom
File size : 2.35 GiB
Duration : 2 h 44 min
Overall bit rate : 2 048 kb/s

Video
ID : 1
Format : AVC
Format/Info : Advanced Video
Codec ID : avc1
Duration : 2 h 44 min
Bit rate : 1 944 kb/s
Width : 1 920 pixels
Height : 1 080 pixels
Display aspect ratio : 16:9
Frame rate mode : Variable
Frame rate : 29.970 (29970/1000) FPS
Minimum frame rate : 19.608 FPS
Maximum frame rate : 32.258 FPS
Color space : YUV
Chroma subsampling : 4:2:0
Bit depth : 8 bits
Scan type : Progressive
Bits/(Pixel*Frame) : 0.031
Stream size : 2.23 GiB (95%)
Color range : Full
Color primaries : BT.709
Transfer characteristics : BT.709
Matrix coefficients : BT.709
Codec configuration box : avc

AJPW Royal Road Tournament

Audio
ID : 2
Format : AAC LC
Codec ID : mp4a-40-2
Duration : 2 h 44 min
Bit rate mode : Constant
Bit rate : 96.0 kb/s
Channel(s) : 2 channels
Channel layout : L R
Sampling rate : 48.0 kHz
Frame rate : 46.875 FPS
Compression mode : Lossy
Stream size : 113 MiB (5%)
Default : Yes
Alternate group : 1

AJPW Royal Road Tournament

Complete name : 2021.08.15.AJPW.Royal.Road.Tournament.Day.1.Evening.mp4
Format : MPEG-4
Format profile : Base Media
Codec ID : isom
File size : 2.19 GiB
Duration : 2 h 33 min
Overall bit rate : 2 048 kb/s

Video
ID : 1
Format : AVC
Format/Info : Advanced Video
Duration : 2 h 33 min
Bit rate : 1 944 kb/s
Width : 1 920 pixels
Height : 1 080 pixels
Display aspect ratio : 16:9
Frame rate mode : Variable
Frame rate : 29.970 (29970/1000) FPS
Minimum frame rate : 19.608 FPS
Maximum frame rate : 32.258 FPS
Color space : YUV
Chroma subsampling : 4:2:0
Bit depth : 8 bits
Scan type : Progressive
Bits/(Pixel*Frame) : 0.031
Stream size : 2.08 GiB (95%)
Color range : Full
Color primaries : BT.709
Transfer characteristics : BT.709
Matrix coefficients : BT.709
Codec configuration box : avcC

AJPW Royal Road Tournament

Audio
ID : 2
Format : AAC LC
Format/Info : Advanced Audio
Codec ID : mp4a-40-2
Duration : 2 h 33 min
Bit rate mode : Constant
Bit rate : 96.0 kb/s
Channel(s) : 2 channels
Channel layout : L R
Sampling rate : 48.0 kHz
Frame rate : 46.875 FPS (1024 SPF)
Compression mode : Lossy
Stream size : 105 MiB (5%)
Default : Yes
Alternate group : 1

AJPW Royal Road Tournament

Complete name : 2021.08.15.AJPW.Royal.Road.Tournament.Day.1.Afternoon.mp4
Format : MPEG-4
Format profile : Base Media
Codec ID : isom
File size : 2.35 GiB
Duration : 2 h 44 min
Overall bit rate : 2 048 kb/s

Video
ID : 1
Format : AVC
Format/Info : Advanced Video
Codec ID : avc1
Duration : 2 h 44 min
Bit rate : 1 944 kb/s
Width : 1 920 pixels
Height : 1 080 pixels
Display aspect ratio : 16:9
Frame rate mode : Variable
Frame rate : 29.970 (29970/1000) FPS
Minimum frame rate : 19.608 FPS
Maximum frame rate : 32.258 FPS
Color space : YUV
Chroma subsampling : 4:2:0
Bit depth : 8 bits
Scan type : Progressive
Bits/(Pixel*Frame) : 0.031
Stream size : 2.23 GiB (95%)
Color range : Full
Color primaries : BT.709
Transfer characteristics : BT.709
Matrix coefficients : BT.709
Codec configuration box : avc

AJPW Royal Road Tournament

Audio
ID : 2
Format : AAC LC
Codec ID : mp4a-40-2
Duration : 2 h 44 min
Bit rate mode : Constant
Bit rate : 96.0 kb/s
Channel(s) : 2 channels
Channel layout : L R
Sampling rate : 48.0 kHz
Frame rate : 46.875 FPS
Compression mode : Lossy
Stream size : 113 MiB (5%)
Default : Yes
Alternate group : 1

AJPW Royal Road Tournament

Complete name : 2021.08.15.AJPW.Royal.Road.Tournament.Day.1.Evening.mp4
Format : MPEG-4
Format profile : Base Media
Codec ID : isom
File size : 2.19 GiB
Duration : 2 h 33 min
Overall bit rate : 2 048 kb/s

Video
ID : 1
Format : AVC
Format/Info : Advanced Video
Duration : 2 h 33 min
Bit rate : 1 944 kb/s
Width : 1 920 pixels
Height : 1 080 pixels
Display aspect ratio : 16:9
Frame rate mode : Variable
Frame rate : 29.970 (29970/1000) FPS
Minimum frame rate : 19.608 FPS
Maximum frame rate : 32.258 FPS
Color space : YUV
Chroma subsampling : 4:2:0
Bit depth : 8 bits
Scan type : Progressive
Bits/(Pixel*Frame) : 0.031
Stream size : 2.08 GiB (95%)
Color range : Full
Color primaries : BT.709
Transfer characteristics : BT.709
Matrix coefficients : BT.709
Codec configuration box : avcC

AJPW Royal Road Tournament

Audio
ID : 2
Format : AAC LC
Format/Info : Advanced Audio
Codec ID : mp4a-40-2
Duration : 2 h 33 min
Bit rate mode : Constant
Bit rate : 96.0 kb/s
Channel(s) : 2 channels
Channel layout : L R
Sampling rate : 48.0 kHz
Frame rate : 46.875 FPS (1024 SPF)
Compression mode : Lossy
Stream size : 105 MiB (5%)
Default : Yes
Alternate group : 1

AJPW Royal Road Tournament

Complete name : 2021.08.15.AJPW.Royal.Road.Tournament.Day.1.Afternoon.mp4
Format : MPEG-4
Format profile : Base Media
Codec ID : isom
File size : 2.35 GiB
Duration : 2 h 44 min
Overall bit rate : 2 048 kb/s

Video
ID : 1
Format : AVC
Format/Info : Advanced Video
Codec ID : avc1
Duration : 2 h 44 min
Bit rate : 1 944 kb/s
Width : 1 920 pixels
Height : 1 080 pixels
Display aspect ratio : 16:9
Frame rate mode : Variable
Frame rate : 29.970 (29970/1000) FPS
Minimum frame rate : 19.608 FPS
Maximum frame rate : 32.258 FPS
Color space : YUV
Chroma subsampling : 4:2:0
Bit depth : 8 bits
Scan type : Progressive
Bits/(Pixel*Frame) : 0.031
Stream size : 2.23 GiB (95%)
Color range : Full
Color primaries : BT.709
Transfer characteristics : BT.709
Matrix coefficients : BT.709
Codec configuration box : avc

AJPW Royal Road Tournament

Audio
ID : 2
Format : AAC LC
Codec ID : mp4a-40-2
Duration : 2 h 44 min
Bit rate mode : Constant
Bit rate : 96.0 kb/s
Channel(s) : 2 channels
Channel layout : L R
Sampling rate : 48.0 kHz
Frame rate : 46.875 FPS
Compression mode : Lossy
Stream size : 113 MiB (5%)
Default : Yes
Alternate group : 1

AJPW Royal Road Tournament

Complete name : 2021.08.15.AJPW.Royal.Road.Tournament.Day.1.Evening.mp4
Format : MPEG-4
Format profile : Base Media
Codec ID : isom
File size : 2.19 GiB
Duration : 2 h 33 min
Overall bit rate : 2 048 kb/s

Video
ID : 1
Format : AVC
Format/Info : Advanced Video
Duration : 2 h 33 min
Bit rate : 1 944 kb/s
Width : 1 920 pixels
Height : 1 080 pixels
Display aspect ratio : 16:9
Frame rate mode : Variable
Frame rate : 29.970 (29970/1000) FPS
Minimum frame rate : 19.608 FPS
Maximum frame rate : 32.258 FPS
Color space : YUV
Chroma subsampling : 4:2:0
Bit depth : 8 bits
Scan type : Progressive
Bits/(Pixel*Frame) : 0.031
Stream size : 2.08 GiB (95%)
Color range : Full
Color primaries : BT.709
Transfer characteristics : BT.709
Matrix coefficients : BT.709
Codec configuration box : avcC

AJPW Royal Road Tournament

Audio
ID : 2
Format : AAC LC
Format/Info : Advanced Audio
Codec ID : mp4a-40-2
Duration : 2 h 33 min
Bit rate mode : Constant
Bit rate : 96.0 kb/s
Channel(s) : 2 channels
Channel layout : L R
Sampling rate : 48.0 kHz
Frame rate : 46.875 FPS (1024 SPF)
Compression mode : Lossy
Stream size : 105 MiB (5%)
Default : Yes
Alternate group : 1

AJPW Royal Road Tournament

Complete name : 2021.08.15.AJPW.Royal.Road.Tournament.Day.1.Afternoon.mp4
Format : MPEG-4
Format profile : Base Media
Codec ID : isom
File size : 2.35 GiB
Duration : 2 h 44 min
Overall bit rate : 2 048 kb/s

Video
ID : 1
Format : AVC
Format/Info : Advanced Video
Codec ID : avc1
Duration : 2 h 44 min
Bit rate : 1 944 kb/s
Width : 1 920 pixels
Height : 1 080 pixels
Display aspect ratio : 16:9
Frame rate mode : Variable
Frame rate : 29.970 (29970/1000) FPS
Minimum frame rate : 19.608 FPS
Maximum frame rate : 32.258 FPS
Color space : YUV
Chroma subsampling : 4:2:0
Bit depth : 8 bits
Scan type : Progressive
Bits/(Pixel*Frame) : 0.031
Stream size : 2.23 GiB (95%)
Color range : Full
Color primaries : BT.709
Transfer characteristics : BT.709
Matrix coefficients : BT.709
Codec configuration box : avc

AJPW Royal Road Tournament

Audio
ID : 2
Format : AAC LC
Codec ID : mp4a-40-2
Duration : 2 h 44 min
Bit rate mode : Constant
Bit rate : 96.0 kb/s
Channel(s) : 2 channels
Channel layout : L R
Sampling rate : 48.0 kHz
Frame rate : 46.875 FPS
Compression mode : Lossy
Stream size : 113 MiB (5%)
Default : Yes
Alternate group : 1

AJPW Royal Road Tournament

Complete name : 2021.08.15.AJPW.Royal.Road.Tournament.Day.1.Evening.mp4
Format : MPEG-4
Format profile : Base Media
Codec ID : isom
File size : 2.19 GiB
Duration : 2 h 33 min
Overall bit rate : 2 048 kb/s

Video
ID : 1
Format : AVC
Format/Info : Advanced Video
Duration : 2 h 33 min
Bit rate : 1 944 kb/s
Width : 1 920 pixels
Height : 1 080 pixels
Display aspect ratio : 16:9
Frame rate mode : Variable
Frame rate : 29.970 (29970/1000) FPS
Minimum frame rate : 19.608 FPS
Maximum frame rate : 32.258 FPS
Color space : YUV
Chroma subsampling : 4:2:0
Bit depth : 8 bits
Scan type : Progressive
Bits/(Pixel*Frame) : 0.031
Stream size : 2.08 GiB (95%)
Color range : Full
Color primaries : BT.709
Transfer characteristics : BT.709
Matrix coefficients : BT.709
Codec configuration box : avcC

AJPW Royal Road Tournament

Audio
ID : 2
Format : AAC LC
Format/Info : Advanced Audio
Codec ID : mp4a-40-2
Duration : 2 h 33 min
Bit rate mode : Constant
Bit rate : 96.0 kb/s
Channel(s) : 2 channels
Channel layout : L R
Sampling rate : 48.0 kHz
Frame rate : 46.875 FPS (1024 SPF)
Compression mode : Lossy
Stream size : 105 MiB (5%)
Default : Yes
Alternate group : 1

AJPW Royal Road Tournament

Complete name : 2021.08.15.AJPW.Royal.Road.Tournament.Day.1.Afternoon.mp4
Format : MPEG-4
Format profile : Base Media
Codec ID : isom
File size : 2.35 GiB
Duration : 2 h 44 min
Overall bit rate : 2 048 kb/s

Video
ID : 1
Format : AVC
Format/Info : Advanced Video
Codec ID : avc1
Duration : 2 h 44 min
Bit rate : 1 944 kb/s
Width : 1 920 pixels
Height : 1 080 pixels
Display aspect ratio : 16:9
Frame rate mode : Variable
Frame rate : 29.970 (29970/1000) FPS
Minimum frame rate : 19.608 FPS
Maximum frame rate : 32.258 FPS
Color space : YUV
Chroma subsampling : 4:2:0
Bit depth : 8 bits
Scan type : Progressive
Bits/(Pixel*Frame) : 0.031
Stream size : 2.23 GiB (95%)
Color range : Full
Color primaries : BT.709
Transfer characteristics : BT.709
Matrix coefficients : BT.709
Codec configuration box : avc

AJPW Royal Road Tournament

Audio
ID : 2
Format : AAC LC
Codec ID : mp4a-40-2
Duration : 2 h 44 min
Bit rate mode : Constant
Bit rate : 96.0 kb/s
Channel(s) : 2 channels
Channel layout : L R
Sampling rate : 48.0 kHz
Frame rate : 46.875 FPS
Compression mode : Lossy
Stream size : 113 MiB (5%)
Default : Yes
Alternate group : 1

AJPW Royal Road Tournament

Complete name : 2021.08.15.AJPW.Royal.Road.Tournament.Day.1.Evening.mp4
Format : MPEG-4
Format profile : Base Media
Codec ID : isom
File size : 2.19 GiB
Duration : 2 h 33 min
Overall bit rate : 2 048 kb/s

Video
ID : 1
Format : AVC
Format/Info : Advanced Video
Duration : 2 h 33 min
Bit rate : 1 944 kb/s
Width : 1 920 pixels
Height : 1 080 pixels
Display aspect ratio : 16:9
Frame rate mode : Variable
Frame rate : 29.970 (29970/1000) FPS
Minimum frame rate : 19.608 FPS
Maximum frame rate : 32.258 FPS
Color space : YUV
Chroma subsampling : 4:2:0
Bit depth : 8 bits
Scan type : Progressive
Bits/(Pixel*Frame) : 0.031
Stream size : 2.08 GiB (95%)
Color range : Full
Color primaries : BT.709
Transfer characteristics : BT.709
Matrix coefficients : BT.709
Codec configuration box : avcC

AJPW Royal Road Tournament

Audio
ID : 2
Format : AAC LC
Format/Info : Advanced Audio
Codec ID : mp4a-40-2
Duration : 2 h 33 min
Bit rate mode : Constant
Bit rate : 96.0 kb/s
Channel(s) : 2 channels
Channel layout : L R
Sampling rate : 48.0 kHz
Frame rate : 46.875 FPS (1024 SPF)
Compression mode : Lossy
Stream size : 105 MiB (5%)
Default : Yes
Alternate group : 1

AJPW Royal Road Tournament

Complete name : 2021.08.15.AJPW.Royal.Road.Tournament.Day.1.Afternoon.mp4
Format : MPEG-4
Format profile : Base Media
Codec ID : isom
File size : 2.35 GiB
Duration : 2 h 44 min
Overall bit rate : 2 048 kb/s

Video
ID : 1
Format : AVC
Format/Info : Advanced Video
Codec ID : avc1
Duration : 2 h 44 min
Bit rate : 1 944 kb/s
Width : 1 920 pixels
Height : 1 080 pixels
Display aspect ratio : 16:9
Frame rate mode : Variable
Frame rate : 29.970 (29970/1000) FPS
Minimum frame rate : 19.608 FPS
Maximum frame rate : 32.258 FPS
Color space : YUV
Chroma subsampling : 4:2:0
Bit depth : 8 bits
Scan type : Progressive
Bits/(Pixel*Frame) : 0.031
Stream size : 2.23 GiB (95%)
Color range : Full
Color primaries : BT.709
Transfer characteristics : BT.709
Matrix coefficients : BT.709
Codec configuration box : avc

AJPW Royal Road Tournament

Audio
ID : 2
Format : AAC LC
Codec ID : mp4a-40-2
Duration : 2 h 44 min
Bit rate mode : Constant
Bit rate : 96.0 kb/s
Channel(s) : 2 channels
Channel layout : L R
Sampling rate : 48.0 kHz
Frame rate : 46.875 FPS
Compression mode : Lossy
Stream size : 113 MiB (5%)
Default : Yes
Alternate group : 1

AJPW Royal Road Tournament

Complete name : 2021.08.15.AJPW.Royal.Road.Tournament.Day.1.Evening.mp4
Format : MPEG-4
Format profile : Base Media
Codec ID : isom
File size : 2.19 GiB
Duration : 2 h 33 min
Overall bit rate : 2 048 kb/s

Video
ID : 1
Format : AVC
Format/Info : Advanced Video
Duration : 2 h 33 min
Bit rate : 1 944 kb/s
Width : 1 920 pixels
Height : 1 080 pixels
Display aspect ratio : 16:9
Frame rate mode : Variable
Frame rate : 29.970 (29970/1000) FPS
Minimum frame rate : 19.608 FPS
Maximum frame rate : 32.258 FPS
Color space : YUV
Chroma subsampling : 4:2:0
Bit depth : 8 bits
Scan type : Progressive
Bits/(Pixel*Frame) : 0.031
Stream size : 2.08 GiB (95%)
Color range : Full
Color primaries : BT.709
Transfer characteristics : BT.709
Matrix coefficients : BT.709
Codec configuration box : avcC

AJPW Royal Road Tournament

Audio
ID : 2
Format : AAC LC
Format/Info : Advanced Audio
Codec ID : mp4a-40-2
Duration : 2 h 33 min
Bit rate mode : Constant
Bit rate : 96.0 kb/s
Channel(s) : 2 channels
Channel layout : L R
Sampling rate : 48.0 kHz
Frame rate : 46.875 FPS (1024 SPF)
Compression mode : Lossy
Stream size : 105 MiB (5%)
Default : Yes
Alternate group : 1

AJPW Royal Road Tournament

Complete name : 2021.08.15.AJPW.Royal.Road.Tournament.Day.1.Afternoon.mp4
Format : MPEG-4
Format profile : Base Media
Codec ID : isom
File size : 2.35 GiB
Duration : 2 h 44 min
Overall bit rate : 2 048 kb/s

Video
ID : 1
Format : AVC
Format/Info : Advanced Video
Codec ID : avc1
Duration : 2 h 44 min
Bit rate : 1 944 kb/s
Width : 1 920 pixels
Height : 1 080 pixels
Display aspect ratio : 16:9
Frame rate mode : Variable
Frame rate : 29.970 (29970/1000) FPS
Minimum frame rate : 19.608 FPS
Maximum frame rate : 32.258 FPS
Color space : YUV
Chroma subsampling : 4:2:0
Bit depth : 8 bits
Scan type : Progressive
Bits/(Pixel*Frame) : 0.031
Stream size : 2.23 GiB (95%)
Color range : Full
Color primaries : BT.709
Transfer characteristics : BT.709
Matrix coefficients : BT.709
Codec configuration box : avc

AJPW Royal Road Tournament

Audio
ID : 2
Format : AAC LC
Codec ID : mp4a-40-2
Duration : 2 h 44 min
Bit rate mode : Constant
Bit rate : 96.0 kb/s
Channel(s) : 2 channels
Channel layout : L R
Sampling rate : 48.0 kHz
Frame rate : 46.875 FPS
Compression mode : Lossy
Stream size : 113 MiB (5%)
Default : Yes
Alternate group : 1

AJPW Royal Road Tournament

Complete name : 2021.08.15.AJPW.Royal.Road.Tournament.Day.1.Evening.mp4
Format : MPEG-4
Format profile : Base Media
Codec ID : isom
File size : 2.19 GiB
Duration : 2 h 33 min
Overall bit rate : 2 048 kb/s

Video
ID : 1
Format : AVC
Format/Info : Advanced Video
Duration : 2 h 33 min
Bit rate : 1 944 kb/s
Width : 1 920 pixels
Height : 1 080 pixels
Display aspect ratio : 16:9
Frame rate mode : Variable
Frame rate : 29.970 (29970/1000) FPS
Minimum frame rate : 19.608 FPS
Maximum frame rate : 32.258 FPS
Color space : YUV
Chroma subsampling : 4:2:0
Bit depth : 8 bits
Scan type : Progressive
Bits/(Pixel*Frame) : 0.031
Stream size : 2.08 GiB (95%)
Color range : Full
Color primaries : BT.709
Transfer characteristics : BT.709
Matrix coefficients : BT.709
Codec configuration box : avcC

AJPW Royal Road Tournament

Audio
ID : 2
Format : AAC LC
Format/Info : Advanced Audio
Codec ID : mp4a-40-2
Duration : 2 h 33 min
Bit rate mode : Constant
Bit rate : 96.0 kb/s
Channel(s) : 2 channels
Channel layout : L R
Sampling rate : 48.0 kHz
Frame rate : 46.875 FPS (1024 SPF)
Compression mode : Lossy
Stream size : 105 MiB (5%)
Default : Yes
Alternate group : 1

AJPW Royal Road Tournament

Complete name : 2021.08.15.AJPW.Royal.Road.Tournament.Day.1.Afternoon.mp4
Format : MPEG-4
Format profile : Base Media
Codec ID : isom
File size : 2.35 GiB
Duration : 2 h 44 min
Overall bit rate : 2 048 kb/s

Video
ID : 1
Format : AVC
Format/Info : Advanced Video
Codec ID : avc1
Duration : 2 h 44 min
Bit rate : 1 944 kb/s
Width : 1 920 pixels
Height : 1 080 pixels
Display aspect ratio : 16:9
Frame rate mode : Variable
Frame rate : 29.970 (29970/1000) FPS
Minimum frame rate : 19.608 FPS
Maximum frame rate : 32.258 FPS
Color space : YUV
Chroma subsampling : 4:2:0
Bit depth : 8 bits
Scan type : Progressive
Bits/(Pixel*Frame) : 0.031
Stream size : 2.23 GiB (95%)
Color range : Full
Color primaries : BT.709
Transfer characteristics : BT.709
Matrix coefficients : BT.709
Codec configuration box : avc

AJPW Royal Road Tournament

Audio
ID : 2
Format : AAC LC
Codec ID : mp4a-40-2
Duration : 2 h 44 min
Bit rate mode : Constant
Bit rate : 96.0 kb/s
Channel(s) : 2 channels
Channel layout : L R
Sampling rate : 48.0 kHz
Frame rate : 46.875 FPS
Compression mode : Lossy
Stream size : 113 MiB (5%)
Default : Yes
Alternate group : 1

AJPW Royal Road Tournament

Complete name : 2021.08.15.AJPW.Royal.Road.Tournament.Day.1.Evening.mp4
Format : MPEG-4
Format profile : Base Media
Codec ID : isom
File size : 2.19 GiB
Duration : 2 h 33 min
Overall bit rate : 2 048 kb/s

Video
ID : 1
Format : AVC
Format/Info : Advanced Video
Duration : 2 h 33 min
Bit rate : 1 944 kb/s
Width : 1 920 pixels
Height : 1 080 pixels
Display aspect ratio : 16:9
Frame rate mode : Variable
Frame rate : 29.970 (29970/1000) FPS
Minimum frame rate : 19.608 FPS
Maximum frame rate : 32.258 FPS
Color space : YUV
Chroma subsampling : 4:2:0
Bit depth : 8 bits
Scan type : Progressive
Bits/(Pixel*Frame) : 0.031
Stream size : 2.08 GiB (95%)
Color range : Full
Color primaries : BT.709
Transfer characteristics : BT.709
Matrix coefficients : BT.709
Codec configuration box : avcC

AJPW Royal Road Tournament

Audio
ID : 2
Format : AAC LC
Format/Info : Advanced Audio
Codec ID : mp4a-40-2
Duration : 2 h 33 min
Bit rate mode : Constant
Bit rate : 96.0 kb/s
Channel(s) : 2 channels
Channel layout : L R
Sampling rate : 48.0 kHz
Frame rate : 46.875 FPS (1024 SPF)
Compression mode : Lossy
Stream size : 105 MiB (5%)
Default : Yes
Alternate group : 1

AJPW Royal Road Tournament

 

[collapse]

 

 

https://dx-tv.com/

You May Also Like

1 Comment

Leave a Reply

Your email address will not be published. Required fields are marked *

This site uses Akismet to reduce spam. Learn how your comment data is processed.