AJPW Jr Battle Of Glory 2021 Day 1 Online Free

AJPW Jr Battle Of Glory 2021 Day 1 Online Free DX-TV

AJPW Jr Battle Of Glory

 AJPW Jr Battle Of Glory

 

 

 

Download Links with High Speed


Dopapk

 

 

Show Links

 

http://shrt10.com/Own9BmIpX

 

[collapse]

 

 

Nitroflare

 

 

Show Links

 

http://shrt10.com/vaf3j

 

[collapse]

 

 

Rapidgator

 

 

Show Links

 

http://shrt10.com/k1bRE9U

 

[collapse]

 

 

Uploaded

 

 

Show Links

 

http://shrt10.com/sltvGah

 

[collapse]

 

 

Watch online

 

Server 1

 

 

 

 

AJPW Jr Battle Of Glory

 

 

 

 

Server-2

 

 

 

 

watch now

 

 

 

|Server-4

 

 

 

 

watch now

 

 

Uploaded By Site DX-TV.com

 

 

Show Info This Show

 

AJPW Jr Battle Of Glory

Complete name : 2021.06.02.AJPW.Jr.Battle.Of.Glory.Day.1.mp4
Format : MPEG-4
Format profile : Base Media
Codec ID : isom
File size : 2.20 GiB
Duration : 2 h 33 min
Overall bit rate : 2 047 kb/s

Video
ID : 1
Format : AVC
Format/Info : Advanced Video
Duration : 2 h 33 min
Bit rate : 1 942 kb/s
Width : 1 920 pixels
Height : 1 080 pixels
Display aspect ratio : 16:9
Frame rate mode : Variable
Frame rate : 29.970 (29970/1000) FPS
Minimum frame rate : 19.608 FPS
Maximum frame rate : 32.258 FPS
Color space : YUV
Chroma subsampling : 4:2:0
Bit depth : 8 bits
Scan type : Progressive
Bits/(Pixel*Frame) : 0.031
Stream size : 2.08 GiB (95%)
Color range : Full
Color primaries : BT.709
Transfer characteristics : BT.709
Matrix coefficients : BT.709
Codec configuration box : avcC

AJPW Jr Battle Of Glory

Audio
ID : 2
Format : AAC LC
Format/Info : Advanced Audio
Codec ID : mp4a-40-2
Duration : 2 h 33 min
Bit rate mode : Constant
Bit rate : 96.0 kb/s
Channel(s) : 2 channels
Channel layout : L R
Sampling rate : 48.0 kHz
Frame rate : 46.875 FPS
Compression mode : Lossy
Stream size : 106 MiB (5%)
Default : Yes
Alternate group : 1

AJPW Jr Battle Of Glory

 

Complete name : 2021.06.02.AJPW.Jr.Battle.Of.Glory.Day.1.mp4
Format : MPEG-4
Format profile : Base Media
Codec ID : isom
File size : 2.20 GiB
Duration : 2 h 33 min
Overall bit rate : 2 047 kb/s

Video
ID : 1
Format : AVC
Format/Info : Advanced Video
Duration : 2 h 33 min
Bit rate : 1 942 kb/s
Width : 1 920 pixels
Height : 1 080 pixels
Display aspect ratio : 16:9
Frame rate mode : Variable
Frame rate : 29.970 (29970/1000) FPS
Minimum frame rate : 19.608 FPS
Maximum frame rate : 32.258 FPS
Color space : YUV
Chroma subsampling : 4:2:0
Bit depth : 8 bits
Scan type : Progressive
Bits/(Pixel*Frame) : 0.031
Stream size : 2.08 GiB (95%)
Color range : Full
Color primaries : BT.709
Transfer characteristics : BT.709
Matrix coefficients : BT.709
Codec configuration box : avcC

AJPW Jr Battle Of Glory

Audio
ID : 2
Format : AAC LC
Format/Info : Advanced Audio
Codec ID : mp4a-40-2
Duration : 2 h 33 min
Bit rate mode : Constant
Bit rate : 96.0 kb/s
Channel(s) : 2 channels
Channel layout : L R
Sampling rate : 48.0 kHz
Frame rate : 46.875 FPS
Compression mode : Lossy
Stream size : 106 MiB (5%)
Default : Yes
Alternate group : 1

AJPW Jr Battle Of Glory

 

Complete name : 2021.06.02.AJPW.Jr.Battle.Of.Glory.Day.1.mp4
Format : MPEG-4
Format profile : Base Media
Codec ID : isom
File size : 2.20 GiB
Duration : 2 h 33 min
Overall bit rate : 2 047 kb/s

Video
ID : 1
Format : AVC
Format/Info : Advanced Video
Duration : 2 h 33 min
Bit rate : 1 942 kb/s
Width : 1 920 pixels
Height : 1 080 pixels
Display aspect ratio : 16:9
Frame rate mode : Variable
Frame rate : 29.970 (29970/1000) FPS
Minimum frame rate : 19.608 FPS
Maximum frame rate : 32.258 FPS
Color space : YUV
Chroma subsampling : 4:2:0
Bit depth : 8 bits
Scan type : Progressive
Bits/(Pixel*Frame) : 0.031
Stream size : 2.08 GiB (95%)
Color range : Full
Color primaries : BT.709
Transfer characteristics : BT.709
Matrix coefficients : BT.709
Codec configuration box : avcC

AJPW Jr Battle Of Glory

Audio
ID : 2
Format : AAC LC
Format/Info : Advanced Audio
Codec ID : mp4a-40-2
Duration : 2 h 33 min
Bit rate mode : Constant
Bit rate : 96.0 kb/s
Channel(s) : 2 channels
Channel layout : L R
Sampling rate : 48.0 kHz
Frame rate : 46.875 FPS
Compression mode : Lossy
Stream size : 106 MiB (5%)
Default : Yes
Alternate group : 1

AJPW Jr Battle Of Glory

 

Complete name : 2021.06.02.AJPW.Jr.Battle.Of.Glory.Day.1.mp4
Format : MPEG-4
Format profile : Base Media
Codec ID : isom
File size : 2.20 GiB
Duration : 2 h 33 min
Overall bit rate : 2 047 kb/s

Video
ID : 1
Format : AVC
Format/Info : Advanced Video
Duration : 2 h 33 min
Bit rate : 1 942 kb/s
Width : 1 920 pixels
Height : 1 080 pixels
Display aspect ratio : 16:9
Frame rate mode : Variable
Frame rate : 29.970 (29970/1000) FPS
Minimum frame rate : 19.608 FPS
Maximum frame rate : 32.258 FPS
Color space : YUV
Chroma subsampling : 4:2:0
Bit depth : 8 bits
Scan type : Progressive
Bits/(Pixel*Frame) : 0.031
Stream size : 2.08 GiB (95%)
Color range : Full
Color primaries : BT.709
Transfer characteristics : BT.709
Matrix coefficients : BT.709
Codec configuration box : avcC

AJPW Jr Battle Of Glory

Audio
ID : 2
Format : AAC LC
Format/Info : Advanced Audio
Codec ID : mp4a-40-2
Duration : 2 h 33 min
Bit rate mode : Constant
Bit rate : 96.0 kb/s
Channel(s) : 2 channels
Channel layout : L R
Sampling rate : 48.0 kHz
Frame rate : 46.875 FPS
Compression mode : Lossy
Stream size : 106 MiB (5%)
Default : Yes
Alternate group : 1

AJPW Jr Battle Of Glory

 

Complete name : 2021.06.02.AJPW.Jr.Battle.Of.Glory.Day.1.mp4
Format : MPEG-4
Format profile : Base Media
Codec ID : isom
File size : 2.20 GiB
Duration : 2 h 33 min
Overall bit rate : 2 047 kb/s

Video
ID : 1
Format : AVC
Format/Info : Advanced Video
Duration : 2 h 33 min
Bit rate : 1 942 kb/s
Width : 1 920 pixels
Height : 1 080 pixels
Display aspect ratio : 16:9
Frame rate mode : Variable
Frame rate : 29.970 (29970/1000) FPS
Minimum frame rate : 19.608 FPS
Maximum frame rate : 32.258 FPS
Color space : YUV
Chroma subsampling : 4:2:0
Bit depth : 8 bits
Scan type : Progressive
Bits/(Pixel*Frame) : 0.031
Stream size : 2.08 GiB (95%)
Color range : Full
Color primaries : BT.709
Transfer characteristics : BT.709
Matrix coefficients : BT.709
Codec configuration box : avcC

AJPW Jr Battle Of Glory

Audio
ID : 2
Format : AAC LC
Format/Info : Advanced Audio
Codec ID : mp4a-40-2
Duration : 2 h 33 min
Bit rate mode : Constant
Bit rate : 96.0 kb/s
Channel(s) : 2 channels
Channel layout : L R
Sampling rate : 48.0 kHz
Frame rate : 46.875 FPS
Compression mode : Lossy
Stream size : 106 MiB (5%)
Default : Yes
Alternate group : 1

AJPW Jr Battle Of Glory

 

Complete name : 2021.06.02.AJPW.Jr.Battle.Of.Glory.Day.1.mp4
Format : MPEG-4
Format profile : Base Media
Codec ID : isom
File size : 2.20 GiB
Duration : 2 h 33 min
Overall bit rate : 2 047 kb/s

Video
ID : 1
Format : AVC
Format/Info : Advanced Video
Duration : 2 h 33 min
Bit rate : 1 942 kb/s
Width : 1 920 pixels
Height : 1 080 pixels
Display aspect ratio : 16:9
Frame rate mode : Variable
Frame rate : 29.970 (29970/1000) FPS
Minimum frame rate : 19.608 FPS
Maximum frame rate : 32.258 FPS
Color space : YUV
Chroma subsampling : 4:2:0
Bit depth : 8 bits
Scan type : Progressive
Bits/(Pixel*Frame) : 0.031
Stream size : 2.08 GiB (95%)
Color range : Full
Color primaries : BT.709
Transfer characteristics : BT.709
Matrix coefficients : BT.709
Codec configuration box : avcC

AJPW Jr Battle Of Glory

Audio
ID : 2
Format : AAC LC
Format/Info : Advanced Audio
Codec ID : mp4a-40-2
Duration : 2 h 33 min
Bit rate mode : Constant
Bit rate : 96.0 kb/s
Channel(s) : 2 channels
Channel layout : L R
Sampling rate : 48.0 kHz
Frame rate : 46.875 FPS
Compression mode : Lossy
Stream size : 106 MiB (5%)
Default : Yes
Alternate group : 1

AJPW Jr Battle Of Glory

 

Complete name : 2021.06.02.AJPW.Jr.Battle.Of.Glory.Day.1.mp4
Format : MPEG-4
Format profile : Base Media
Codec ID : isom
File size : 2.20 GiB
Duration : 2 h 33 min
Overall bit rate : 2 047 kb/s

Video
ID : 1
Format : AVC
Format/Info : Advanced Video
Duration : 2 h 33 min
Bit rate : 1 942 kb/s
Width : 1 920 pixels
Height : 1 080 pixels
Display aspect ratio : 16:9
Frame rate mode : Variable
Frame rate : 29.970 (29970/1000) FPS
Minimum frame rate : 19.608 FPS
Maximum frame rate : 32.258 FPS
Color space : YUV
Chroma subsampling : 4:2:0
Bit depth : 8 bits
Scan type : Progressive
Bits/(Pixel*Frame) : 0.031
Stream size : 2.08 GiB (95%)
Color range : Full
Color primaries : BT.709
Transfer characteristics : BT.709
Matrix coefficients : BT.709
Codec configuration box : avcC

AJPW Jr Battle Of Glory

Audio
ID : 2
Format : AAC LC
Format/Info : Advanced Audio
Codec ID : mp4a-40-2
Duration : 2 h 33 min
Bit rate mode : Constant
Bit rate : 96.0 kb/s
Channel(s) : 2 channels
Channel layout : L R
Sampling rate : 48.0 kHz
Frame rate : 46.875 FPS
Compression mode : Lossy
Stream size : 106 MiB (5%)
Default : Yes
Alternate group : 1

AJPW Jr Battle Of Glory

 

Complete name : 2021.06.02.AJPW.Jr.Battle.Of.Glory.Day.1.mp4
Format : MPEG-4
Format profile : Base Media
Codec ID : isom
File size : 2.20 GiB
Duration : 2 h 33 min
Overall bit rate : 2 047 kb/s

Video
ID : 1
Format : AVC
Format/Info : Advanced Video
Duration : 2 h 33 min
Bit rate : 1 942 kb/s
Width : 1 920 pixels
Height : 1 080 pixels
Display aspect ratio : 16:9
Frame rate mode : Variable
Frame rate : 29.970 (29970/1000) FPS
Minimum frame rate : 19.608 FPS
Maximum frame rate : 32.258 FPS
Color space : YUV
Chroma subsampling : 4:2:0
Bit depth : 8 bits
Scan type : Progressive
Bits/(Pixel*Frame) : 0.031
Stream size : 2.08 GiB (95%)
Color range : Full
Color primaries : BT.709
Transfer characteristics : BT.709
Matrix coefficients : BT.709
Codec configuration box : avcC

AJPW Jr Battle Of Glory

Audio
ID : 2
Format : AAC LC
Format/Info : Advanced Audio
Codec ID : mp4a-40-2
Duration : 2 h 33 min
Bit rate mode : Constant
Bit rate : 96.0 kb/s
Channel(s) : 2 channels
Channel layout : L R
Sampling rate : 48.0 kHz
Frame rate : 46.875 FPS
Compression mode : Lossy
Stream size : 106 MiB (5%)
Default : Yes
Alternate group : 1

AJPW Jr Battle Of Glory

 

Complete name : 2021.06.02.AJPW.Jr.Battle.Of.Glory.Day.1.mp4
Format : MPEG-4
Format profile : Base Media
Codec ID : isom
File size : 2.20 GiB
Duration : 2 h 33 min
Overall bit rate : 2 047 kb/s

Video
ID : 1
Format : AVC
Format/Info : Advanced Video
Duration : 2 h 33 min
Bit rate : 1 942 kb/s
Width : 1 920 pixels
Height : 1 080 pixels
Display aspect ratio : 16:9
Frame rate mode : Variable
Frame rate : 29.970 (29970/1000) FPS
Minimum frame rate : 19.608 FPS
Maximum frame rate : 32.258 FPS
Color space : YUV
Chroma subsampling : 4:2:0
Bit depth : 8 bits
Scan type : Progressive
Bits/(Pixel*Frame) : 0.031
Stream size : 2.08 GiB (95%)
Color range : Full
Color primaries : BT.709
Transfer characteristics : BT.709
Matrix coefficients : BT.709
Codec configuration box : avcC

AJPW Jr Battle Of Glory

Audio
ID : 2
Format : AAC LC
Format/Info : Advanced Audio
Codec ID : mp4a-40-2
Duration : 2 h 33 min
Bit rate mode : Constant
Bit rate : 96.0 kb/s
Channel(s) : 2 channels
Channel layout : L R
Sampling rate : 48.0 kHz
Frame rate : 46.875 FPS
Compression mode : Lossy
Stream size : 106 MiB (5%)
Default : Yes
Alternate group : 1

AJPW Jr Battle Of Glory

 

Complete name : 2021.06.02.AJPW.Jr.Battle.Of.Glory.Day.1.mp4
Format : MPEG-4
Format profile : Base Media
Codec ID : isom
File size : 2.20 GiB
Duration : 2 h 33 min
Overall bit rate : 2 047 kb/s

Video
ID : 1
Format : AVC
Format/Info : Advanced Video
Duration : 2 h 33 min
Bit rate : 1 942 kb/s
Width : 1 920 pixels
Height : 1 080 pixels
Display aspect ratio : 16:9
Frame rate mode : Variable
Frame rate : 29.970 (29970/1000) FPS
Minimum frame rate : 19.608 FPS
Maximum frame rate : 32.258 FPS
Color space : YUV
Chroma subsampling : 4:2:0
Bit depth : 8 bits
Scan type : Progressive
Bits/(Pixel*Frame) : 0.031
Stream size : 2.08 GiB (95%)
Color range : Full
Color primaries : BT.709
Transfer characteristics : BT.709
Matrix coefficients : BT.709
Codec configuration box : avcC

AJPW Jr Battle Of Glory

Audio
ID : 2
Format : AAC LC
Format/Info : Advanced Audio
Codec ID : mp4a-40-2
Duration : 2 h 33 min
Bit rate mode : Constant
Bit rate : 96.0 kb/s
Channel(s) : 2 channels
Channel layout : L R
Sampling rate : 48.0 kHz
Frame rate : 46.875 FPS
Compression mode : Lossy
Stream size : 106 MiB (5%)
Default : Yes
Alternate group : 1

AJPW Jr Battle Of Glory

 

Complete name : 2021.06.02.AJPW.Jr.Battle.Of.Glory.Day.1.mp4
Format : MPEG-4
Format profile : Base Media
Codec ID : isom
File size : 2.20 GiB
Duration : 2 h 33 min
Overall bit rate : 2 047 kb/s

Video
ID : 1
Format : AVC
Format/Info : Advanced Video
Duration : 2 h 33 min
Bit rate : 1 942 kb/s
Width : 1 920 pixels
Height : 1 080 pixels
Display aspect ratio : 16:9
Frame rate mode : Variable
Frame rate : 29.970 (29970/1000) FPS
Minimum frame rate : 19.608 FPS
Maximum frame rate : 32.258 FPS
Color space : YUV
Chroma subsampling : 4:2:0
Bit depth : 8 bits
Scan type : Progressive
Bits/(Pixel*Frame) : 0.031
Stream size : 2.08 GiB (95%)
Color range : Full
Color primaries : BT.709
Transfer characteristics : BT.709
Matrix coefficients : BT.709
Codec configuration box : avcC

AJPW Jr Battle Of Glory

Audio
ID : 2
Format : AAC LC
Format/Info : Advanced Audio
Codec ID : mp4a-40-2
Duration : 2 h 33 min
Bit rate mode : Constant
Bit rate : 96.0 kb/s
Channel(s) : 2 channels
Channel layout : L R
Sampling rate : 48.0 kHz
Frame rate : 46.875 FPS
Compression mode : Lossy
Stream size : 106 MiB (5%)
Default : Yes
Alternate group : 1

AJPW Jr Battle Of Glory

 

Complete name : 2021.06.02.AJPW.Jr.Battle.Of.Glory.Day.1.mp4
Format : MPEG-4
Format profile : Base Media
Codec ID : isom
File size : 2.20 GiB
Duration : 2 h 33 min
Overall bit rate : 2 047 kb/s

Video
ID : 1
Format : AVC
Format/Info : Advanced Video
Duration : 2 h 33 min
Bit rate : 1 942 kb/s
Width : 1 920 pixels
Height : 1 080 pixels
Display aspect ratio : 16:9
Frame rate mode : Variable
Frame rate : 29.970 (29970/1000) FPS
Minimum frame rate : 19.608 FPS
Maximum frame rate : 32.258 FPS
Color space : YUV
Chroma subsampling : 4:2:0
Bit depth : 8 bits
Scan type : Progressive
Bits/(Pixel*Frame) : 0.031
Stream size : 2.08 GiB (95%)
Color range : Full
Color primaries : BT.709
Transfer characteristics : BT.709
Matrix coefficients : BT.709
Codec configuration box : avcC

AJPW Jr Battle Of Glory

Audio
ID : 2
Format : AAC LC
Format/Info : Advanced Audio
Codec ID : mp4a-40-2
Duration : 2 h 33 min
Bit rate mode : Constant
Bit rate : 96.0 kb/s
Channel(s) : 2 channels
Channel layout : L R
Sampling rate : 48.0 kHz
Frame rate : 46.875 FPS
Compression mode : Lossy
Stream size : 106 MiB (5%)
Default : Yes
Alternate group : 1

AJPW Jr Battle Of Glory

 

Complete name : 2021.06.02.AJPW.Jr.Battle.Of.Glory.Day.1.mp4
Format : MPEG-4
Format profile : Base Media
Codec ID : isom
File size : 2.20 GiB
Duration : 2 h 33 min
Overall bit rate : 2 047 kb/s

Video
ID : 1
Format : AVC
Format/Info : Advanced Video
Duration : 2 h 33 min
Bit rate : 1 942 kb/s
Width : 1 920 pixels
Height : 1 080 pixels
Display aspect ratio : 16:9
Frame rate mode : Variable
Frame rate : 29.970 (29970/1000) FPS
Minimum frame rate : 19.608 FPS
Maximum frame rate : 32.258 FPS
Color space : YUV
Chroma subsampling : 4:2:0
Bit depth : 8 bits
Scan type : Progressive
Bits/(Pixel*Frame) : 0.031
Stream size : 2.08 GiB (95%)
Color range : Full
Color primaries : BT.709
Transfer characteristics : BT.709
Matrix coefficients : BT.709
Codec configuration box : avcC

AJPW Jr Battle Of Glory

Audio
ID : 2
Format : AAC LC
Format/Info : Advanced Audio
Codec ID : mp4a-40-2
Duration : 2 h 33 min
Bit rate mode : Constant
Bit rate : 96.0 kb/s
Channel(s) : 2 channels
Channel layout : L R
Sampling rate : 48.0 kHz
Frame rate : 46.875 FPS
Compression mode : Lossy
Stream size : 106 MiB (5%)
Default : Yes
Alternate group : 1

AJPW Jr Battle Of Glory

 

Complete name : 2021.06.02.AJPW.Jr.Battle.Of.Glory.Day.1.mp4
Format : MPEG-4
Format profile : Base Media
Codec ID : isom
File size : 2.20 GiB
Duration : 2 h 33 min
Overall bit rate : 2 047 kb/s

Video
ID : 1
Format : AVC
Format/Info : Advanced Video
Duration : 2 h 33 min
Bit rate : 1 942 kb/s
Width : 1 920 pixels
Height : 1 080 pixels
Display aspect ratio : 16:9
Frame rate mode : Variable
Frame rate : 29.970 (29970/1000) FPS
Minimum frame rate : 19.608 FPS
Maximum frame rate : 32.258 FPS
Color space : YUV
Chroma subsampling : 4:2:0
Bit depth : 8 bits
Scan type : Progressive
Bits/(Pixel*Frame) : 0.031
Stream size : 2.08 GiB (95%)
Color range : Full
Color primaries : BT.709
Transfer characteristics : BT.709
Matrix coefficients : BT.709
Codec configuration box : avcC

AJPW Jr Battle Of Glory

Audio
ID : 2
Format : AAC LC
Format/Info : Advanced Audio
Codec ID : mp4a-40-2
Duration : 2 h 33 min
Bit rate mode : Constant
Bit rate : 96.0 kb/s
Channel(s) : 2 channels
Channel layout : L R
Sampling rate : 48.0 kHz
Frame rate : 46.875 FPS
Compression mode : Lossy
Stream size : 106 MiB (5%)
Default : Yes
Alternate group : 1

AJPW Jr Battle Of Glory

 

 

 

 

 

 

[collapse]

 

 

https://dx-tv.com/

Leave a Reply

Your email address will not be published. Required fields are marked *

This site uses Akismet to reduce spam. Learn how your comment data is processed.